<?xml version="1.0" standalone="no"?>
<!DOCTYPE svg PUBLIC "-//W3C//DTD SVG 1.1//EN" "http://www.w3.org/Graphics/SVG/1.1/DTD/svg11.dtd">
<svg xmlns="http://www.w3.org/2000/svg">
<defs >
<font id="Battambang" horiz-adv-x="1235" ><font-face
    font-family="Battambang"
    units-per-em="2048"
    panose-1="0 0 0 0 0 0 0 0 0 0"
    ascent="2500"
    descent="-1200"
    alphabetic="0" />
<glyph unicode=" " glyph-name="space" horiz-adv-x="700" />
<glyph unicode="!" glyph-name="exclam" horiz-adv-x="483" d="M143 478V1456H340V478H143ZM143 0V204H340V0H143Z" />
<glyph unicode="&quot;" glyph-name="quotedbl" horiz-adv-x="770" d="M324 1560V1337L263 1055H166V1560H324ZM634 1560V1337L573 1055H476V1560H634Z" />
<glyph unicode="#" glyph-name="numbersign" horiz-adv-x="1246" d="M1104 550V410H856L776 0H625L705 410H449L369 0H218L298 410H63V550H326L394 898H139V1040H422L504 1456H655L573 1040H828L910 1456H1061L979 1040H1179V898H952L884 550H1104ZM477 550H733L801
898H545L477 550Z" />
<glyph unicode="$" glyph-name="dollar" horiz-adv-x="1110" d="M626 -17V-208H470V-17Q354 -5 267 47Q178 98 129 192T82 424L84 429H274Q274 327 310 264Q345 201 406 173T542 144Q629 144 689 172Q815 230 815 376Q815 436 788 484Q733 578 541 643Q408 684
316 742Q225 800 179 882T133 1078Q133 1243 228 1347T489 1472V1693H647V1471Q814 1447 906 1328T999 1007H803Q803 1143 741 1227T566 1311Q448 1311 389 1250T330 1081Q330 1017 356 970Q405 880 610 810Q745 767 835 709Q924 651 968 571T1012 378Q1012 206
909 104T626 -17Z" />
<glyph unicode="%" glyph-name="percent" horiz-adv-x="1460" d="M379 800Q287 800 220 840Q77 922 77 1099V1176Q77 1262 114 1329Q151 1397 218 1437T377 1477Q470 1477 537 1438Q605 1398 642 1330T679 1176V1099Q679 1014 642 947Q605 880 538 840T379 800ZM379
922Q452 922 492 973T533 1099V1176Q533 1250 492 1302T377 1355Q303 1355 263 1303T223 1176V1099Q223 1025 263 974T379 922ZM422 110L313 177L1024 1315L1133 1248L422 110ZM1084 -21Q991 -21 924 19Q856 58 819 126T782 279V357Q782 442 819 509Q856 577 923
617T1082 657Q1174 657 1241 618Q1309 578 1346 510T1384 357V279Q1384 193 1347 126Q1310 58 1243 19T1084 -21ZM1084 101Q1158 101 1198 152T1238 279V357Q1238 431 1197 483T1082 535Q1008 535 968 483T928 357V279Q928 204 968 153T1084 101Z" />
<glyph unicode="&amp;" glyph-name="ampersand" horiz-adv-x="1289" d="M548 -21Q403 -21 298 32Q192 85 133 177T74 392Q74 512 142 602T345 783Q351 788 355 789Q277 888 239 965T201 1125Q201 1237 245 1317Q336 1477 567 1477Q674 1477 753 1435Q833 1393
878 1323T923 1167Q923 1069 871 998T715 851L606 771L946 362Q987 427 1010 506T1033 673H1209Q1209 412 1057 229L1242 5L1240 0H1011L926 102Q761 -21 548 -21ZM506 891L644 986Q701 1024 721 1068T742 1167Q742 1228 694 1275T567 1322Q486 1322 442 1266T398
1127Q398 1074 425 1017T506 891ZM548 133Q693 133 822 228L461 663L421 634Q330 566 301 504T271 392Q271 279 342 206T548 133Z" />
<glyph unicode="&apos;" glyph-name="quotesingle" horiz-adv-x="460" d="M324 1560V1337L263 1055H166V1560H324Z" />
<glyph unicode="(" glyph-name="parenleft" horiz-adv-x="662" d="M650 -355L613 -463H607Q520 -416 433 -322T273 -92Q201 44 158 214T114 582V591Q114 788 157 958T273 1264Q345 1400 432 1495T607 1636L613 1635L650 1519Q581 1465 520 1379T412 1176Q365 1059
338 913T311 593V580Q311 406 338 260T412 -4Q459 -121 520 -209T650 -355Z" />
<glyph unicode=")" glyph-name="parenright" horiz-adv-x="654" d="M54 -463H48L11 -355Q79 -302 140 -215T248 -10Q295 109 322 257T350 580V593Q350 764 322 911T245 1177Q197 1296 137 1384T11 1528L48 1636H54Q141 1590 228 1495T388 1264Q460 1128 503 958T547
591V582Q547 384 504 214T388 -92Q315 -227 228 -321T54 -463Z" />
<glyph unicode="*" glyph-name="asterisk" horiz-adv-x="958" d="M411 1114L401 1456H562L552 1108L845 1218L893 1062L591 973L784 703L653 607L472 894L296 615L164 708L362 982L66 1071L115 1225L411 1114Z" />
<glyph unicode="+" glyph-name="plus" horiz-adv-x="1145" d="M474 783V1206H671V783H1071V605H671V146H474V605H73V783H474Z" />
<glyph unicode="," glyph-name="comma" horiz-adv-x="404" d="M134 -311L23 -237Q70 -165 94 -90T118 69V221H315V72Q315 -26 266 -133T134 -311Z" />
<glyph unicode="-" glyph-name="hyphen" horiz-adv-x="797" d="M154 538V692H643V538H154Z" />
<glyph unicode="." glyph-name="period" horiz-adv-x="493" d="M145 0V202H342V0H145Z" />
<glyph unicode="/" glyph-name="slash" horiz-adv-x="824" d="M0 -125L608 1456H774L167 -125H0Z" />
<glyph unicode="0" glyph-name="zero" horiz-adv-x="1168" d="M585 -21Q371 -21 246 128T121 555V900Q121 1178 245 1327T583 1477Q798 1477 923 1328T1048 900V555Q1048 276 924 128T585 -21ZM585 133Q851 133 851 515V942Q851 1322 583 1322Q454 1322 386 1227T318
942V515Q318 326 387 230T585 133Z" />
<glyph unicode="1" glyph-name="one" horiz-adv-x="844" d="M346 154V1245L117 1241V1364L543 1456V154L767 126V0H121V126L346 154Z" />
<glyph unicode="2" glyph-name="two" horiz-adv-x="1131" d="M340 154H857L873 321H1040V0H97V135L574 665Q617 712 650 753T707 828Q755 896 774 950T793 1064Q793 1173 727 1247T538 1322Q410 1322 339 1245T267 1027H78L76 1033Q73 1159 129 1260Q185 1361
291 1419T545 1477Q683 1477 783 1425Q882 1373 936 1282T990 1072Q990 991 959 913Q928 834 867 751T721 576L338 159L340 154Z" />
<glyph unicode="3" glyph-name="three" horiz-adv-x="1106" d="M530 -21Q395 -21 293 28Q189 76 131 165T75 378L78 384H266Q266 307 298 251Q366 133 530 133Q655 133 726 201T797 402Q797 537 734 601T535 665H363V819H535Q623 819 675 849Q728 878 751 933T775
1067Q775 1322 530 1322Q453 1322 396 1292Q276 1227 276 1075H87L85 1081Q82 1190 138 1281Q194 1371 295 1424T530 1477Q732 1477 852 1370T972 1063Q972 973 918 884T754 747Q885 704 939 612T994 406Q994 273 935 178Q875 82 770 31T530 -21Z" />
<glyph unicode="4" glyph-name="four" horiz-adv-x="1187" d="M913 1456V490H1114V336H913V154L1076 126V0H554V126L717 154V336H63V447L705 1456H913ZM717 1175L711 1177L691 1124L273 490H717V1175Z" />
<glyph unicode="5" glyph-name="five" horiz-adv-x="1081" d="M522 -21Q400 -21 302 24Q205 69 150 157T97 377L99 383H277Q277 265 345 199T522 133Q647 133 716 221T785 462Q785 603 716 692T523 782Q407 782 355 747T278 640L114 657L198 1456H967V1168H819L800
1281H365L318 872Q349 895 383 913Q418 930 459 941T550 953Q682 954 781 895Q878 835 930 725T982 464Q982 317 930 209Q878 100 775 40T522 -21Z" />
<glyph unicode="6" glyph-name="six" horiz-adv-x="1144" d="M614 -21Q471 -21 361 49Q249 118 185 251T121 573V769Q121 1002 191 1158Q260 1316 382 1396T664 1477Q738 1477 811 1460T933 1417L895 1270Q848 1293 792 1307T664 1322Q511 1322 421 1207T324 858L328
854Q384 906 465 936T640 967Q771 967 866 906Q962 845 1014 737T1067 490Q1067 341 1011 224Q955 109 853 44T614 -21ZM614 133Q694 133 752 180Q809 227 839 308T870 490Q870 634 798 727T597 820Q530 820 476 802Q369 765 317 671V554Q317 351 401 242T614 133Z"
/>
<glyph unicode="7" glyph-name="seven" horiz-adv-x="1128" d="M570 157L554 0H357L373 157Q402 390 464 582Q527 777 627 953T867 1301H259L244 1134H76V1456H1060V1301Q928 1144 843 1010T704 745Q652 615 622 473T570 157Z" />
<glyph unicode="8" glyph-name="eight" horiz-adv-x="1131" d="M566 -21Q424 -21 317 27Q211 74 152 166T92 394Q92 517 166 611T366 749Q257 791 195 876T133 1076Q133 1204 187 1294Q241 1383 338 1430T564 1477Q691 1477 790 1430Q888 1383 943 1294T999 1076Q999
962 935 877T762 749Q888 705 963 611T1039 394Q1039 259 979 167Q919 74 813 27T566 -21ZM566 827Q636 827 689 858Q742 888 772 943T802 1072Q802 1145 771 1201Q740 1257 687 1289T564 1322Q459 1322 395 1254T330 1072Q330 961 395 894T566 827ZM566 133Q647
133 711 165Q773 197 808 256T843 398Q843 479 807 540Q771 602 708 637T564 672Q483 672 421 637Q359 602 324 541T289 398Q289 274 364 204T566 133Z" />
<glyph unicode="9" glyph-name="nine" horiz-adv-x="1154" d="M511 -21Q435 -21 356 -7T213 38L243 187Q304 158 367 146T511 133Q653 133 735 241T821 591L817 596Q777 529 705 493T543 457Q402 457 298 516Q195 575 140 687T84 958Q84 1111 145 1227Q205 1344
307 1410T535 1477Q688 1477 797 1414Q907 1350 966 1225T1026 913V650Q1026 421 962 274Q898 125 783 52T511 -21ZM543 612Q652 612 724 659T829 779V933Q829 1322 541 1322Q467 1322 409 1276Q350 1230 316 1148T281 958Q281 854 313 776Q345 698 403 655T543
612Z" />
<glyph unicode=":" glyph-name="colon" horiz-adv-x="419" d="M145 880V1082H342V880H145ZM145 0V202H342V0H145Z" />
<glyph unicode=";" glyph-name="semicolon" horiz-adv-x="424" d="M146 880V1082H343V880H146ZM164 -311L53 -237Q100 -165 124 -90T148 69V221H345V72Q345 -26 296 -133T164 -311Z" />
<glyph unicode="&lt;" glyph-name="less" horiz-adv-x="1017" d="M76 635L892 1013V812L333 579L248 561V555L333 536L892 308V107L76 486V635Z" />
<glyph unicode="=" glyph-name="equal" horiz-adv-x="1127" d="M147 823V987H981V823H147ZM147 407V571H981V407H147Z" />
<glyph unicode="&gt;" glyph-name="greater" horiz-adv-x="1060" d="M723 521L807 538V544L723 564L125 798V993L980 615V466L125 87V283L723 521Z" />
<glyph unicode="?" glyph-name="question" horiz-adv-x="953" d="M557 410H360Q360 483 365 530T385 611Q399 645 429 679T510 759Q583 826 621 878Q660 933 676 985T693 1091Q693 1197 637 1254T475 1311Q384 1311 321 1262T257 1116H69L66 1122Q64 1229 117
1309Q170 1389 262 1433T475 1477Q672 1477 781 1377T890 1096Q890 1009 862 940Q834 870 777 799T633 641Q599 606 582 576Q566 546 562 509T557 410ZM358 0V208H563V0H358Z" />
<glyph unicode="@" glyph-name="at" horiz-adv-x="1821" d="M863 -453Q611 -453 432 -340Q254 -227 164 -19T86 478Q100 762 207 975Q315 1190 502 1310T937 1431Q1190 1431 1366 1318Q1542 1205 1628 997T1704 502Q1698 360 1647 241Q1596 123 1498 51T1252 -21Q1179
-21 1126 20T1049 137Q950 -21 760 -21Q635 -21 566 99T515 416Q530 590 588 718Q645 846 733 917T931 988Q1001 988 1051 977T1145 942T1240 882L1242 878L1191 293Q1185 220 1197 178Q1209 135 1234 118T1294 100Q1417 100 1490 213T1572 502Q1589 884 1429 1097T933
1311Q727 1311 574 1206Q421 1101 333 913T235 478Q223 227 295 45Q367 -137 512 -236T867 -335Q955 -335 1045 -314T1197 -257L1236 -364Q1168 -406 1065 -429T863 -453ZM820 126Q883 126 936 151T1034 239Q1033 251 1033 264T1036 293L1083 831Q1057 843 1029
850T969 857Q844 857 778 748T691 416Q680 275 713 201T820 126Z" />
<glyph unicode="A" glyph-name="A" horiz-adv-x="1533" d="M1045 0V126L1155 145L1059 413H476L377 145L487 126V0H70V126L178 141L687 1456H856L1356 141L1463 126V0H1045ZM767 1203L755 1170L537 578H999L785 1170L773 1203H767Z" />
<glyph unicode="B" glyph-name="B" horiz-adv-x="1322" d="M771 0H81V126L244 154V1301L81 1329V1456H709Q937 1456 1065 1358T1194 1062Q1194 965 1133 889T970 775Q1059 757 1121 705Q1253 595 1253 411Q1253 211 1123 106T771 0ZM709 1301H441V837H760Q866
837 931 898T997 1066Q997 1184 923 1242T709 1301ZM801 683H441V154H771Q906 154 980 220T1055 409Q1055 495 1028 556Q1000 617 944 650T801 683Z" />
<glyph unicode="C" glyph-name="C" horiz-adv-x="1290" d="M739 -21Q520 -21 374 75Q227 171 154 338T80 717V738Q80 951 157 1119Q234 1286 378 1381T722 1477Q863 1477 980 1433T1174 1321V1007H1017L996 1237Q966 1262 923 1279Q838 1314 721 1314Q577 1314
479 1241Q380 1168 329 1039T278 740V717Q278 533 333 405Q444 139 746 139Q816 139 883 156T994 200L1016 403H1170V87Q1088 36 974 8T739 -21Z" />
<glyph unicode="D" glyph-name="D" horiz-adv-x="1356" d="M661 0H81V126L244 154V1301L81 1329V1456H651Q843 1456 988 1364Q1131 1272 1211 1111T1291 743V712Q1291 511 1214 349Q1137 187 996 94T661 0ZM651 1301H441V154H651Q790 154 888 230Q987 305 1040
431T1094 712V745Q1094 903 1041 1030Q987 1155 888 1228T651 1301Z" />
<glyph unicode="E" glyph-name="E" horiz-adv-x="1306" d="M978 830V675H441V148H1011L1033 349H1190V0H81V126L244 154V1301L81 1329V1456H1159V1106H1001L979 1304H441V830H978Z" />
<glyph unicode="F" glyph-name="F" horiz-adv-x="1256" d="M441 1303V799H974V644H441V154L604 126V0H81V126L244 154V1301L81 1329V1456H1176V1106H1018L996 1303H441Z" />
<glyph unicode="G" glyph-name="G" horiz-adv-x="1346" d="M738 -21Q536 -21 388 73Q240 166 160 332T80 716V740Q80 960 161 1126Q241 1291 381 1384T699 1477Q869 1477 987 1438T1190 1333V1039H1028L1007 1250Q909 1315 719 1315Q595 1315 494 1243Q394 1171
336 1043T278 742V716Q278 542 332 413Q385 283 488 212T738 140Q838 140 907 157T1029 203V545L750 555V700H1226V136Q1163 77 1046 28T738 -21Z" />
<glyph unicode="H" glyph-name="H" horiz-adv-x="1578" d="M974 0V126L1137 154V643H441V154L604 126V0H81V126L244 154V1301L81 1329V1456H604V1329L441 1301V798H1137V1301L974 1329V1456H1497V1329L1334 1301V154L1497 126V0H974Z" />
<glyph unicode="I" glyph-name="I" horiz-adv-x="685" d="M81 1329V1456H604V1329L441 1301V154L604 126V0H81V126L244 154V1301L81 1329Z" />
<glyph unicode="J" glyph-name="J" horiz-adv-x="1169" d="M503 -21Q382 -21 284 27Q185 75 126 172T60 415L62 421H251Q255 274 318 205T500 136Q584 136 636 172Q689 207 714 269T740 413V1301L546 1327V1456H1100V1329L937 1301V413Q937 282 888 185Q839 87
742 33T503 -21Z" />
<glyph unicode="K" glyph-name="K" horiz-adv-x="1501" d="M1017 1315L908 1329V1456H1375V1329L1238 1304L793 820L1293 151L1427 126V0H941V126L1061 140L1060 141L669 684L441 436V154L604 126V0H81V126L244 154V1301L81 1329V1456H604V1329L441 1301V675L1013
1310L1017 1315Z" />
<glyph unicode="L" glyph-name="L" horiz-adv-x="1210" d="M604 1456V1329L441 1301V151H956L979 381H1130V0H81V126L244 154V1301L81 1329V1456H604Z" />
<glyph unicode="M" glyph-name="M" horiz-adv-x="1982" d="M1059 52H928L439 1186L434 1185L441 576V154L617 126V0H94V126L257 154V1301L94 1329V1456H520L989 351H995L1449 1456H1888V1329L1725 1301V154L1888 126V0H1365V126L1537 154V1187L1532 1188L1059 52Z" />
<glyph unicode="N" glyph-name="N" horiz-adv-x="1592" d="M1346 1301V0H1166L433 1141L427 1139V154L606 126V0H83V126L246 154V1301L83 1329V1456H445L1159 321L1165 323V1301L986 1329V1456H1509V1329L1346 1301Z" />
<glyph unicode="O" glyph-name="O" horiz-adv-x="1351" d="M675 -21Q534 -21 422 33T232 186Q70 388 70 717V738Q70 1066 232 1270Q310 1369 422 1423T675 1477Q824 1477 937 1423T1127 1270Q1204 1171 1242 1036T1281 738V717Q1281 554 1243 419T1127 186Q1051
87 938 33T675 -21ZM675 143Q820 143 910 215Q999 287 1041 416T1083 717V740Q1083 910 1041 1039Q998 1167 908 1239T675 1312Q544 1312 453 1239Q362 1166 315 1038T268 740V717Q268 548 315 418Q362 288 453 216T675 143Z" />
<glyph unicode="P" glyph-name="P" horiz-adv-x="1297" d="M750 584H441V154L604 126V0H81V126L244 154V1301L81 1329V1456H750Q907 1456 1016 1402Q1242 1290 1242 1020Q1242 887 1184 790Q1126 692 1016 638T750 584ZM750 1301H441V738H750Q898 738 971 817T1045
1018Q1045 1139 972 1220T750 1301Z" />
<glyph unicode="Q" glyph-name="Q" horiz-adv-x="1376" d="M1056 105L1348 -98L1237 -245L885 13Q835 -3 782 -12T674 -21Q534 -21 422 33T232 186Q70 390 70 717V738Q70 900 111 1035T231 1270Q309 1369 421 1423T674 1477Q822 1477 935 1423T1125 1270Q1279
1069 1279 738V717Q1279 520 1232 362T1056 105ZM674 143Q815 143 905 215Q995 287 1038 416T1082 717V740Q1082 910 1040 1039Q997 1167 907 1239T674 1312Q544 1312 453 1239Q362 1166 315 1038T267 740V717Q267 548 314 418Q361 288 451 216T674 143Z" />
<glyph unicode="R" glyph-name="R" horiz-adv-x="1385" d="M938 679L1184 147L1285 129V0H1042L750 656L441 650V154L604 126V0H81V126L244 154V1301L81 1329V1455H730Q888 1455 999 1408Q1222 1310 1222 1050Q1222 921 1167 835Q1094 720 938 679ZM441 1301V805H710Q875
805 950 868T1025 1052Q1025 1167 953 1234T730 1301H441Z" />
<glyph unicode="S" glyph-name="S" horiz-adv-x="1206" d="M606 -21Q473 -21 350 18T115 138V449H268L301 220Q366 180 442 158T606 136Q707 136 776 167Q919 229 919 377Q919 443 887 495Q855 546 782 584T581 652Q435 686 328 746Q117 865 117 1079Q117 1194
178 1283Q238 1373 346 1425T598 1477Q751 1477 868 1431T1062 1318V1027H909L876 1235Q831 1271 764 1295T598 1319Q516 1319 450 1290Q386 1260 350 1207T314 1082Q314 1019 347 972Q407 883 649 823Q1116 707 1116 379Q1116 262 1053 172Q990 81 876 30T606
-21Z" />
<glyph unicode="T" glyph-name="T" horiz-adv-x="1406" d="M1306 1456V1105H1160L1130 1307H800V154L963 126V0H440V126L603 154V1307H273L244 1105H96V1456H1306Z" />
<glyph unicode="U" glyph-name="U" horiz-adv-x="1522" d="M755 -21Q607 -21 487 38Q369 97 301 206T233 469V1301L70 1329V1456H593V1329L430 1301V469Q430 360 472 286Q513 212 587 175T758 137Q857 137 932 174Q1007 211 1049 285T1092 469V1301L929 1329V1456H1452V1329L1289
1301V469Q1289 312 1223 202Q1156 93 1036 36T755 -21Z" />
<glyph unicode="V" glyph-name="V" horiz-adv-x="1508" d="M794 382L1132 1309L984 1329V1456H1443V1329L1326 1313L838 0H669L181 1313L65 1329V1456H525V1329L392 1308L718 382L752 267H758L794 382Z" />
<glyph unicode="W" glyph-name="W" horiz-adv-x="2129" d="M1942 1314L1616 0H1429L1113 1008L1073 1155H1067L1028 1008L711 0H535L195 1314L72 1329V1456H544V1329L393 1306L583 505L627 318L633 317L691 504L984 1456H1157L1453 504L1510 306H1516L1568 504L1756
1306L1593 1329V1456H2057V1329L1942 1314Z" />
<glyph unicode="X" glyph-name="X" horiz-adv-x="1529" d="M1449 0H971V126L1112 139L767 612L423 139L556 126V0H80V126L206 148L657 739L239 1307L112 1329V1456H584V1329L447 1316L769 867L1075 1316L935 1329V1456H1410V1329L1277 1307L882 739L1320 148L1449 126V0Z" />
<glyph unicode="Y" glyph-name="Y" horiz-adv-x="1461" d="M904 1456H1396V1329L1269 1310L829 545V154L992 126V0H470V126L633 154V530L185 1310L65 1329V1456H567V1329L401 1310L731 699L732 701L752 738L1076 1310L904 1329V1456Z" />
<glyph unicode="Z" glyph-name="Z" horiz-adv-x="1197" d="M105 1456H1074V1311L313 153H932L950 360H1107V0H90V149L847 1302H281L263 1114H105V1456Z" />
<glyph unicode="[" glyph-name="bracketleft" horiz-adv-x="573" d="M157 -312V1664H541V1509H354V-157H541V-312H157Z" />
<glyph unicode="\" glyph-name="backslash" horiz-adv-x="841" d="M644 -125L36 1456H222L830 -125H644Z" />
<glyph unicode="]" glyph-name="bracketright" horiz-adv-x="552" d="M23 -312V-157H211V1509H23V1664H408V-312H23Z" />
<glyph unicode="^" glyph-name="asciicircum" horiz-adv-x="864" d="M504 1456L802 729H620L454 1148L438 1218H432L416 1148L253 729H71L370 1456H504Z" />
<glyph unicode="_" glyph-name="underscore" horiz-adv-x="1168" d="M119 -154V0H1041V-154H119Z" />
<glyph unicode="a" glyph-name="a" horiz-adv-x="1132" d="M424 -21Q255 -21 167 61T79 294Q79 398 136 474Q192 551 299 593T555 635H748V741Q748 839 689 893T521 947Q453 947 403 931T312 885L291 734H139V982Q286 1102 524 1102Q721 1102 833 1008T945 739V218Q945
197 945 177T948 137L1053 126V0H770Q753 82 749 149Q692 76 607 28T424 -21ZM453 144Q551 144 632 191T748 304V500H548Q412 500 344 435T276 290Q276 144 453 144Z" />
<glyph unicode="b" glyph-name="b" horiz-adv-x="1145" d="M649 -21Q440 -21 335 139L317 0H147V1405L-16 1433V1560H344V954Q395 1026 470 1064T647 1102Q782 1102 876 1030Q971 957 1021 826T1071 521V500Q1071 345 1021 227Q970 110 876 45T649 -21ZM599 139Q738
139 805 238T873 500V521Q873 647 843 741Q813 836 752 889T597 942Q506 942 444 898T344 780V302Q381 227 444 183T599 139Z" />
<glyph unicode="c" glyph-name="c" horiz-adv-x="1067" d="M563 -21Q417 -21 307 48Q198 116 138 238T78 520V562Q78 718 136 838Q194 960 303 1031T563 1102Q694 1102 792 1059T958 941L963 681H809L775 870Q741 905 690 926T570 947Q481 947 416 895Q349 843
312 756T275 562V520Q275 403 310 315Q345 228 409 181T562 133Q662 133 728 188T809 339H986L988 333Q984 242 933 159Q883 78 791 29T563 -21Z" />
<glyph unicode="d" glyph-name="d" horiz-adv-x="1218" d="M499 -21Q368 -21 273 45Q179 110 129 227T78 500V521Q78 694 128 826Q178 957 273 1029T501 1102Q597 1102 670 1067T796 964V1405L633 1433V1560H993V154L1156 126V0H822L806 129Q698 -21 499 -21ZM549
139Q637 139 697 179T796 292V794Q758 862 697 902T551 942Q458 942 396 889Q335 835 305 741T275 521V500Q275 337 342 238T549 139Z" />
<glyph unicode="e" glyph-name="e" horiz-adv-x="1059" d="M567 -21Q417 -21 306 48Q195 116 135 238T74 520V564Q74 719 138 840Q201 962 306 1032T537 1102Q683 1102 782 1042Q880 982 930 874T980 618V495H278L275 490Q276 388 312 306Q347 225 411 179T567
133Q667 133 742 161T873 240L950 112Q892 56 797 18T567 -21ZM282 654L284 649H783V675Q783 754 756 815Q728 877 674 912T537 947Q472 947 417 909Q305 828 282 654Z" />
<glyph unicode="f" glyph-name="f" horiz-adv-x="725" d="M666 936H430V154L616 126V0H70V126L233 154V936H64V1082H233V1219Q233 1392 323 1486T576 1581Q610 1581 649 1576T731 1560L707 1410Q689 1414 659 1417T601 1420Q430 1420 430 1219V1082H666V936Z" />
<glyph unicode="g" glyph-name="g" horiz-adv-x="1157" d="M1133 1082V956L999 927V14Q999 -127 947 -227Q895 -328 794 -382T549 -437Q471 -437 380 -416T220 -357L271 -204Q326 -233 401 -252T547 -271Q679 -271 740 -197T802 14V117Q694 -21 505 -21Q373 -21
277 45Q181 110 130 227T78 500V521Q78 697 130 826Q181 957 277 1029T507 1102Q708 1102 815 946L833 1082H1133ZM802 294V792Q764 861 703 901T556 942Q462 942 400 888Q337 834 306 740T275 521V500Q275 337 344 238T554 139Q643 139 703 179T802 294Z" />
<glyph unicode="h" glyph-name="h" horiz-adv-x="1315" d="M409 799V154L572 126V0H49V126L212 154V1405L49 1433V1560H409V938Q465 1016 546 1059T726 1102Q900 1102 996 998T1092 678V154L1255 126V0H732V126L895 154V680Q895 942 666 942Q585 942 519 904T409 799Z" />
<glyph unicode="i" glyph-name="i" horiz-adv-x="652" d="M220 1349V1560H427V1349H220ZM230 154V927L67 955V1082H427V154L590 126V0H67V126L230 154Z" />
<glyph unicode="j" glyph-name="j" horiz-adv-x="525" d="M174 1349V1560H381V1349H174ZM56 -437Q24 -437 -2 -433T-56 -419L-43 -269Q-29 -274 4 -278T56 -282Q115 -282 149 -231T184 -89V927L21 955V1082H381V-89Q381 -256 295 -346T56 -437Z" />
<glyph unicode="k" glyph-name="k" horiz-adv-x="1287" d="M812 942L696 955V1082H1162V955L1023 929L719 623L1092 150L1248 126V0H759V126L869 139L866 143L592 496L424 327V154L587 126V0H64V126L227 154V1405L64 1433V1560H424V555L807 936L812 942Z" />
<glyph unicode="l" glyph-name="l" horiz-adv-x="653" d="M227 154V1405L64 1433V1560H424V154L587 126V0H64V126L227 154Z" />
<glyph unicode="m" glyph-name="m" horiz-adv-x="1977" d="M434 801V154L597 126V0H74V126L237 154V927L74 955V1082H414L427 941Q479 1018 561 1060T751 1102Q859 1102 936 1052T1053 902Q1104 994 1188 1048T1384 1102Q1550 1102 1646 989T1742 647V154L1905
126V0H1381V126L1544 154V649Q1544 809 1489 875T1326 942Q1223 942 1161 870T1088 687V154L1251 126V0H728V126L891 154V649Q891 801 835 871T671 942Q581 942 523 905T434 801Z" />
<glyph unicode="n" glyph-name="n" horiz-adv-x="1343" d="M434 789V154L597 126V0H74V126L237 154V927L74 955V1082H413L427 921Q481 1007 562 1054T748 1102Q923 1102 1019 1000T1115 683V154L1278 126V0H755V126L918 154V679Q918 822 862 882T689 942Q604 942
539 901T434 789Z" />
<glyph unicode="o" glyph-name="o" horiz-adv-x="1124" d="M563 -21Q414 -21 305 50Q196 121 137 245T78 529V551Q78 710 137 836Q196 961 304 1031T561 1102Q710 1102 820 1031Q928 960 987 836T1046 551V529Q1046 370 987 244Q928 120 820 50T563 -21ZM563 133Q657
133 721 185Q784 236 816 325T849 529V551Q849 664 817 755Q784 844 720 895T561 947Q468 947 403 896Q339 844 307 755T275 551V529Q275 416 307 326Q339 236 403 185T563 133Z" />
<glyph unicode="p" glyph-name="p" horiz-adv-x="1197" d="M394 112V-261L566 -289V-416H44V-289L197 -261V927L34 955V1082H366L384 950Q495 1102 695 1102Q830 1102 924 1030Q1019 957 1069 827T1119 521V500Q1119 345 1069 227Q1018 110 924 45T698 -21Q501
-21 394 112ZM637 133Q777 133 849 235T921 500V521Q921 644 889 740Q857 835 794 888T635 942Q551 942 491 904T394 800V273Q431 206 490 170T637 133Z" />
<glyph unicode="q" glyph-name="q" horiz-adv-x="1139" d="M812 1082H982V-261L1135 -289V-416H622V-289L785 -261V102Q680 -21 499 -21Q368 -21 273 45Q179 110 129 227T78 500V521Q78 694 128 826Q178 957 273 1029T501 1102Q691 1102 796 963L812 1082ZM549
133Q631 133 688 169T785 271V814Q746 875 688 911T551 947Q458 947 396 893Q335 838 305 742T275 521V500Q275 336 342 235T549 133Z" />
<glyph unicode="r" glyph-name="r" horiz-adv-x="854" d="M432 767V154L595 126V0H72V126L235 154V927L72 955V1082H411L428 944L430 925Q476 1008 543 1055T698 1102Q729 1102 761 1097T808 1086L782 903L645 911Q567 916 514 876T432 767Z" />
<glyph unicode="s" glyph-name="s" horiz-adv-x="1022" d="M512 -21Q403 -21 308 1T106 69L104 326H253L290 171Q396 127 512 127Q632 127 684 173T736 287Q736 351 684 395T493 471Q297 516 205 591T112 793Q112 881 163 951Q214 1020 305 1061T517 1102Q640
1102 727 1074T880 999L890 752H742L710 896Q637 950 517 950Q425 950 368 907T310 799Q310 762 327 733Q345 702 399 679T528 638Q754 585 843 503T933 301Q933 164 832 72T512 -21Z" />
<glyph unicode="t" glyph-name="t" horiz-adv-x="730" d="M456 -17Q336 -17 266 53T195 279V936H24V1082H195V1343H392V1082H627V936H392V279Q392 201 423 164T506 127Q541 127 584 133T651 145L678 16Q635 3 573 -7T456 -17Z" />
<glyph unicode="u" glyph-name="u" horiz-adv-x="1245" d="M550 -21Q374 -21 275 92T176 444V927L52 955V1082H373V442Q373 269 424 204T583 139Q688 139 756 181T860 302V927L715 955V1082H1057V154L1181 126V0H880L867 160Q816 73 736 26T550 -21Z" />
<glyph unicode="v" glyph-name="v" horiz-adv-x="1206" d="M645 319L868 935L723 955V1082H1176V955L1062 940L696 0H523L138 940L26 955V1082H480V955L339 935L579 319L607 232H613L645 319Z" />
<glyph unicode="w" glyph-name="w" horiz-adv-x="1823" d="M1657 938L1377 0H1190L971 650L919 824L913 823L862 650L627 0H458L173 941L52 955V1082H499V955L366 933L515 394L549 266H555L599 394L834 1082H1000L1224 396L1272 244H1278L1325 396L1476 934L1340
955V1082H1777V955L1657 938Z" />
<glyph unicode="x" glyph-name="x" horiz-adv-x="1203" d="M1163 0H704V126L834 137L597 426L367 137L484 126V0H42V126L162 149L485 547L169 932L62 955V1082H486V955L378 943L600 667L816 944L700 955V1082H1117V955L1007 932L714 550L1051 149L1163 126V0Z" />
<glyph unicode="y" glyph-name="y" horiz-adv-x="1192" d="M309 -437Q286 -437 249 -432T192 -421L212 -266Q229 -268 259 -269T300 -271Q363 -271 402 -223T476 -92L523 22L140 939L24 955V1082H478V955L347 935L558 394L609 253H615L865 935L727 955V1082H1172V955L1060
939L634 -166Q604 -245 562 -306Q519 -367 458 -402T309 -437Z" />
<glyph unicode="z" glyph-name="z" horiz-adv-x="1032" d="M101 1082H921V948L326 150H787L813 333H960V0H88V138L677 930H274L249 748H101V1082Z" />
<glyph unicode="{" glyph-name="braceleft" horiz-adv-x="701" d="M671 -246L631 -364Q436 -309 354 -189T271 101V306Q271 418 220 480T63 543V690Q169 690 220 751T271 926V1132Q271 1303 353 1422T631 1597L671 1480Q561 1445 515 1355T468 1132V926Q468 821
426 741T299 616Q384 570 426 490T468 306V101Q468 -31 514 -120T671 -246Z" />
<glyph unicode="|" glyph-name="bar" horiz-adv-x="451" d="M150 -270V1456H307V-270H150Z" />
<glyph unicode="}" glyph-name="braceright" horiz-adv-x="701" d="M67 -364L27 -246Q135 -210 182 -121T229 101V306Q229 413 274 493T413 616Q319 657 274 737T229 926V1132Q229 1264 182 1354T27 1480L67 1597Q261 1542 343 1423T426 1132V926Q426 813 477
752T635 690V543Q528 543 477 481T426 306V101Q426 -69 344 -189T67 -364Z" />
<glyph unicode="~" glyph-name="asciitilde" horiz-adv-x="1386" d="M952 401Q863 401 790 434T631 541Q571 589 522 613T424 637Q357 637 310 584T262 456L121 474Q121 565 160 640Q199 714 267 758T424 803Q512 803 587 769T747 664Q806 613 853 590T952 567Q1018
567 1066 624T1115 758L1257 740Q1257 648 1217 572Q1177 494 1108 448T952 401Z" />
<glyph unicode="&#xab;" glyph-name="guillemotleft" horiz-adv-x="935" d="M501 117H353L58 506V525L353 914H501L246 515L501 117ZM835 117H687L392 506V525L687 914H835L580 515L835 117Z" />
<glyph unicode="&#xbb;" glyph-name="guillemotright" horiz-adv-x="938" d="M253 152H105L359 550L105 949H253L548 560V541L253 152ZM598 152H450L704 550L450 949H598L893 560V541L598 152Z" />
</font>
</defs>
</svg>
