<?xml version="1.0" standalone="no"?>
<!DOCTYPE svg PUBLIC "-//W3C//DTD SVG 1.1//EN" "http://www.w3.org/Graphics/SVG/1.1/DTD/svg11.dtd" >
<svg xmlns="http://www.w3.org/2000/svg" xmlns:xlink="http://www.w3.org/1999/xlink" version="1.1">
<metadata>
Created by FontForge 20200314 at Wed Dec  2 18:05:15 2020
 By www-data
(c) Copyright Beijing HANYI KEYIN Information Technology Co.
</metadata>
<defs>
<font id="HYQiHei-FES" horiz-adv-x="1000" >
  <font-face 
    font-family="HYQiHei-65S"
    font-weight="500"
    font-stretch="normal"
    units-per-em="1000"
    panose-1="0 2 6 0 4 1 1 1 1 1"
    ascent="850"
    descent="-150"
    x-height="510"
    cap-height="710"
    bbox="-113 -258 1278 1038"
    underline-thickness="50"
    underline-position="-283"
    unicode-range="U+001B-FFE5"
  />
<missing-glyph 
 />
    <glyph glyph-name=".notdef" 
 />
    <glyph glyph-name="uni001B" 
 />
    <glyph glyph-name="space" unicode=" " horiz-adv-x="340" 
 />
    <glyph glyph-name="exclam" unicode="!" horiz-adv-x="275" 
d="M193 711v-394l-8 -137h-96l-7 137v394h111zM197 94v-134h-120v134h120z" />
    <glyph glyph-name="quotedbl" unicode="&#x22;" horiz-adv-x="431" 
d="M173 710l-9 -266h-78l-9 266h96zM353 710l-9 -266h-78l-9 266h96z" />
    <glyph glyph-name="numbersign" unicode="#" horiz-adv-x="686" 
d="M187 512l28 198h105l-27 -198h154l28 198h105l-27 -198h91v-80h-102l-23 -172h108v-80h-119l-30 -220h-110l31 220h-151l-29 -220h-109l31 220h-101v80h112l24 172h-118v80h129zM259 260h152l24 172h-153z" />
    <glyph glyph-name="dollar" unicode="$" horiz-adv-x="610" 
d="M142 174q14 -49 47 -87q31 -31 74 -42v259q-42 16 -82 37q-41 22 -75 53q-52 49 -54 121q0 33 9 66q13 38 41 68q30 30 68 47q45 17 93 22v75h91v-77q70 -9 125 -53q28 -24 48 -55q20 -33 33 -70l-111 -14q-15 31 -39 57q-24 23 -56 33v-244q43 -16 84 -35q42 -21 78 -53
q28 -26 44 -60q13 -35 14 -71q-1 -42 -16 -81q-17 -37 -47 -65q-35 -29 -78 -44q-39 -12 -79 -17v-74h-91v76q-81 10 -143 61q-33 28 -55 65q-23 41 -35 86zM464 151q-3 40 -32 68q-35 33 -78 51v-228q45 5 80 35q29 31 30 74zM163 515q1 -37 27 -64q31 -31 73 -48v216
q-41 -7 -71 -35q-29 -29 -29 -69z" />
    <glyph glyph-name="percent" unicode="%" horiz-adv-x="955" 
d="M48 519q0 72 47 126q26 27 61 43q39 15 80 16q40 -1 78 -16q35 -15 61 -42q48 -55 48 -127q-1 -32 -10 -63q-12 -36 -37 -65q-26 -27 -61 -42q-38 -14 -79 -14q-42 0 -80 15q-36 15 -62 43q-47 54 -46 126zM532 143q0 72 47 126q57 58 140 59q40 -1 78 -16q35 -15 62 -42
q47 -55 47 -127q0 -73 -47 -128q-26 -26 -61 -41q-38 -14 -79 -15q-42 1 -80 16q-35 15 -61 42q-47 54 -46 126zM659 702h106l-467 -742h-106zM615 142q-1 -40 25 -70q33 -32 79 -31q45 -1 77 31q26 30 26 70t-26 71q-32 32 -77 33q-47 -1 -78 -34q-26 -30 -26 -70zM132 518
q-1 -40 25 -70q32 -32 79 -31q44 -1 76 31q26 30 26 70t-26 71q-31 32 -76 33q-41 -1 -71 -27q-33 -32 -33 -77z" />
    <glyph glyph-name="ampersand" unicode="&#x26;" horiz-adv-x="778" 
d="M43 155q0 71 46 126q25 29 57 52q33 23 69 42q-30 41 -52 87q-17 36 -19 76q0 69 49 118q29 26 66 40q43 13 88 14q34 -1 67 -9q38 -10 69 -34q28 -23 44 -56q14 -34 15 -71q-1 -28 -10 -53q-14 -33 -39 -58q-27 -27 -59 -47q-34 -22 -69 -40q80 -92 170 -174
q39 78 39 166h108q0 -129 -69 -237q78 -71 161 -137h-156l-70 65q-52 -42 -115 -63q-62 -20 -127 -20q-56 1 -109 16q-47 14 -86 44q-37 32 -55 76q-13 37 -13 77zM301 31q46 -1 90 14q46 16 84 48q-105 96 -198 202q-52 -27 -93 -68q-29 -30 -31 -72q-1 -56 41 -93
q22 -16 49 -24q28 -8 58 -7zM252 538q1 -26 12 -50q16 -36 40 -68q27 13 53 28q22 13 42 30q17 15 27 34q6 14 7 29q-1 35 -27 60q-27 21 -61 21q-41 0 -70 -27q-23 -24 -23 -57z" />
    <glyph glyph-name="quotesingle" unicode="'" horiz-adv-x="253" 
d="M175 710l-9 -266h-80l-9 266h98z" />
    <glyph glyph-name="parenleft" unicode="(" horiz-adv-x="367" 
d="M104 239q1 121 32 238q31 123 94 233h100q-60 -112 -94 -233q-32 -117 -32 -238q-1 -123 31 -241q33 -123 96 -235h-100q-65 113 -97 238q-30 117 -30 238z" />
    <glyph glyph-name="parenright" unicode=")" horiz-adv-x="367" 
d="M35 -237q62 112 96 235q32 118 32 241q-1 121 -33 238q-34 121 -94 233h100q62 -110 93 -233q31 -117 33 -238q-1 -121 -31 -238q-31 -125 -95 -238h-101v0z" />
    <glyph glyph-name="asterisk" unicode="*" horiz-adv-x="489" 
d="M292 710l-17 -144l132 62l29 -91l-142 -30l103 -104l-77 -56l-77 125l-77 -126l-76 56l104 107l-141 29l28 91l134 -62l-17 143h94z" />
    <glyph glyph-name="plus" unicode="+" horiz-adv-x="650" 
d="M273 386v241h100v-241h242v-95h-242v-243h-100v243h-239v95h239z" />
    <glyph glyph-name="comma" unicode="," horiz-adv-x="277" 
d="M71 -152q31 15 49 44q19 31 20 68h-66v157h130v-153q-1 -61 -40 -107q-38 -44 -93 -61v52v0z" />
    <glyph glyph-name="hyphen" unicode="-" horiz-adv-x="511" 
d="M461 385v-94h-412v94h412z" />
    <glyph glyph-name="period" unicode="." horiz-adv-x="276" 
d="M203 117v-157h-130v157h130z" />
    <glyph glyph-name="slash" unicode="/" horiz-adv-x="420" 
d="M284 710h104l-252 -750h-105z" />
    <glyph glyph-name="zero" unicode="0" horiz-adv-x="650" 
d="M51 325q-1 74 15 148q10 39 26 76q15 32 36 61q37 48 91 75q49 23 104 24q54 -1 104 -24q55 -27 92 -76q21 -29 36 -60q16 -38 26 -77q16 -73 17 -147q-1 -75 -16 -148q-10 -39 -25 -76q-15 -32 -36 -60q-37 -48 -91 -75q-51 -23 -107 -24q-55 1 -105 24q-54 27 -91 74
q-20 29 -35 60q-16 38 -26 77q-16 73 -15 148zM164 325q0 -50 7 -100q8 -53 31 -100q19 -38 52 -63q31 -21 69 -21q38 -1 70 20q34 25 53 63q23 48 32 101q7 49 8 100q-1 50 -8 99q-9 53 -33 102q-20 37 -53 62q-32 21 -69 22q-38 -1 -69 -22q-33 -25 -52 -62
q-23 -49 -31 -102q-7 -49 -7 -99z" />
    <glyph glyph-name="one" unicode="1" horiz-adv-x="650" 
d="M288 696h102v-736h-110v615l-144 -88l-37 93z" />
    <glyph glyph-name="two" unicode="2" horiz-adv-x="650" 
d="M63 25q31 67 83 121q33 33 70 62q53 40 108 78q33 23 64 49q27 24 49 53q31 44 33 98q-1 53 -39 90q-22 18 -49 27q-25 6 -50 7q-56 -1 -100 -34q-41 -36 -55 -89l-108 17q11 48 36 90q26 38 64 66q73 49 163 49q45 -1 90 -11q49 -13 89 -44q34 -30 53 -71q17 -45 18 -92
q-1 -42 -12 -82q-12 -34 -32 -65q-21 -29 -48 -54q-57 -51 -120 -94q-49 -35 -94 -76q-29 -29 -54 -62h368v-98h-527v65v0z" />
    <glyph glyph-name="three" unicode="3" horiz-adv-x="650" 
d="M164 158q13 -54 56 -87q48 -32 107 -30q33 0 64 9q27 10 49 29q37 36 37 89q-1 52 -39 87q-22 19 -51 28q-32 10 -66 11h-66v96h66q50 -1 91 28q20 16 32 38q11 22 12 47q-2 48 -39 78q-41 30 -91 29q-55 1 -100 -31q-37 -32 -47 -80l-111 17q19 90 94 145q40 26 86 38
q39 9 80 10q52 -1 102 -15q43 -15 78 -43q60 -55 61 -135q0 -57 -30 -104q-35 -47 -89 -66q59 -15 99 -61q20 -25 30 -56q9 -32 10 -66q0 -49 -20 -94q-20 -43 -56 -71q-42 -32 -94 -45q-45 -10 -92 -11q-47 1 -91 12q-46 12 -85 39q-41 27 -67 70q-22 36 -31 78z" />
    <glyph glyph-name="four" unicode="4" horiz-adv-x="650" 
d="M358 696h158v-482h92v-95h-92v-159h-110v159h-369v75zM406 214v369h-2l-235 -369h237z" />
    <glyph glyph-name="five" unicode="5" horiz-adv-x="650" 
d="M168 147q14 -47 53 -76q47 -31 103 -30q26 0 52 7q30 9 54 30q22 22 34 50q11 33 12 68q-1 31 -12 61q-11 27 -33 48q-45 37 -103 36q-47 0 -88 -20q-37 -19 -61 -52l-104 16l37 411h436v-99h-343l-17 -224q66 66 161 67q54 0 104 -19q45 -19 78 -54q32 -39 46 -87
q10 -42 11 -84q-1 -55 -19 -106q-18 -48 -55 -83q-40 -36 -92 -52q-46 -12 -93 -13q-43 1 -84 10q-47 11 -88 38q-75 50 -99 138z" />
    <glyph glyph-name="six" unicode="6" horiz-adv-x="650" 
d="M181 189q1 -34 13 -65q12 -30 34 -52q43 -42 103 -41q58 -1 99 39q22 23 33 52q11 32 12 66q-1 34 -12 66q-11 29 -32 52q-42 41 -100 42q-69 -2 -115 -53q-38 -46 -35 -106zM65 286q-1 92 19 182q9 39 24 75q14 33 34 63q39 55 100 83q49 18 103 20q72 1 133 -36
q64 -44 95 -115l-110 -18q-17 35 -48 58q-34 22 -73 22q-35 -2 -66 -18q-39 -24 -60 -65q-23 -46 -32 -96q-10 -52 -11 -105h2q22 43 64 69q54 31 117 32q41 -1 81 -13q47 -16 82 -50q34 -34 50 -79q17 -49 18 -99q0 -58 -20 -113q-18 -47 -56 -82q-40 -33 -91 -47
q-44 -11 -89 -12q-61 0 -116 26q-52 26 -87 73q-37 56 -51 122q-12 61 -12 123z" />
    <glyph glyph-name="seven" unicode="7" horiz-adv-x="650" 
d="M62 696h515v-80q-119 -151 -184 -331q-57 -158 -58 -325h-110q0 66 10 132q16 92 46 179q61 176 172 326h-391v99z" />
    <glyph glyph-name="eight" unicode="8" horiz-adv-x="650" 
d="M193 504q0 -53 41 -87q40 -30 90 -29q49 -1 88 29q39 34 40 87q-2 50 -40 84q-38 32 -88 32q-53 0 -94 -33q-36 -34 -37 -83zM171 164q-1 -53 36 -91q22 -20 50 -30q32 -12 67 -12q59 0 106 35q47 38 48 99q-1 54 -39 92q-23 20 -51 31q-31 10 -64 11q-33 -1 -65 -11
q-28 -11 -50 -31q-38 -39 -38 -93zM59 160q1 61 38 110q40 54 105 75q-50 21 -84 62q-36 45 -38 103q0 43 18 82q20 38 54 65q40 29 87 41q42 10 85 11q41 -1 81 -10q47 -12 85 -40q34 -27 55 -66q18 -40 19 -83q-2 -57 -36 -103q-34 -44 -85 -62q68 -21 111 -77
q35 -48 36 -108q-1 -43 -16 -83q-19 -46 -59 -77q-40 -30 -88 -44q-51 -13 -103 -14q-53 1 -104 14q-49 13 -89 43q-39 31 -58 77q-14 40 -14 84z" />
    <glyph glyph-name="nine" unicode="9" horiz-adv-x="650" 
d="M174 464q0 -35 11 -67q11 -29 32 -52q42 -41 101 -40q68 1 114 51q38 47 36 107q-2 33 -14 64q-12 29 -33 52q-43 41 -103 41q-59 0 -101 -40q-21 -23 -32 -51q-11 -32 -11 -65zM62 456q0 44 11 88q14 50 48 89q36 38 85 56q56 20 117 20q49 -1 96 -16q55 -21 93 -66
q39 -50 55 -111q19 -74 19 -150q0 -93 -20 -183q-10 -39 -24 -76q-15 -33 -35 -62q-39 -55 -100 -83q-50 -18 -103 -20q-72 -1 -134 36q-31 20 -54 48q-24 31 -40 67l110 18q16 -36 47 -59q34 -22 74 -21q34 1 66 16q39 23 61 63q24 45 34 96q11 55 11 111l-2 1
q-28 -51 -80 -78q-49 -25 -104 -25q-93 0 -160 62q-35 34 -53 79q-18 48 -18 100z" />
    <glyph glyph-name="colon" unicode=":" horiz-adv-x="276" 
d="M203 490v-158h-130v158h130zM203 117v-157h-130v157h130z" />
    <glyph glyph-name="semicolon" unicode=";" horiz-adv-x="277" 
d="M70 -152q31 15 49 44q19 31 20 68h-66v157h130v-153q-1 -61 -40 -107q-38 -44 -93 -61v52zM203 490v-158h-130v158h130z" />
    <glyph glyph-name="less" unicode="&#x3c;" horiz-adv-x="650" 
d="M563 617v-107l-363 -165l363 -165v-106l-476 226v89z" />
    <glyph glyph-name="equal" unicode="=" horiz-adv-x="650" 
d="M590 517v-95h-531v95h531zM590 257v-95h-531v95h531z" />
    <glyph glyph-name="greater" unicode="&#x3e;" horiz-adv-x="650" 
d="M562 389v-89l-476 -226v106l363 165l-363 165v107z" />
    <glyph glyph-name="question" unicode="?" horiz-adv-x="567" 
d="M34 514q7 40 22 78q19 43 52 76q33 30 74 45q46 14 94 15q43 -1 86 -10q47 -10 86 -39q34 -27 51 -67q17 -45 18 -93q1 -47 -20 -89q-13 -23 -31 -42q-22 -23 -46 -43q-18 -15 -35 -28q-26 -18 -43 -43q-14 -25 -13 -54v-41h-110v41q-1 44 19 84q12 20 29 37q22 19 45 37
t45 39q17 15 30 34q20 30 20 68q0 45 -33 76q-19 16 -42 24q-28 8 -56 9q-55 1 -95 -35q-20 -21 -31 -47q-9 -25 -12 -50zM333 94v-134h-118v134h118z" />
    <glyph glyph-name="at" unicode="@" horiz-adv-x="877" 
d="M52 312q-1 86 31 167q31 77 91 135q64 58 146 84q70 20 143 22q63 -1 126 -14q70 -17 128 -60q52 -42 79 -103q28 -68 28 -141q-2 -59 -19 -114q-18 -54 -54 -98q-70 -80 -176 -81q-25 0 -47 11q-20 11 -30 33q-50 -46 -116 -45q-69 -1 -116 48q-22 26 -32 59
q-8 29 -8 59q0 58 19 113q18 52 54 93q67 72 165 72q30 -1 58 -12q23 -10 42 -27q4 16 10 32l88 -23l-106 -301q-4 -24 11 -42q16 -13 38 -10q34 5 63 25q31 24 53 58q42 69 43 150q-1 47 -15 93q-19 54 -60 93q-43 39 -98 58q-63 20 -128 20q-77 -1 -149 -29
q-66 -29 -115 -81q-49 -55 -71 -125q-17 -58 -17 -118q-1 -71 23 -137q23 -60 70 -104q51 -44 116 -62q57 -13 117 -14q48 0 97 5q43 5 85 19q77 28 139 82l11 -52q-62 -53 -140 -80q-44 -15 -90 -21q-51 -7 -102 -7q-86 0 -167 29q-71 28 -125 82q-52 57 -75 131
q-18 62 -18 128zM321 278q-1 -32 17 -59q18 -23 49 -24q26 0 49 14q20 12 30 33l64 186q-23 36 -65 38q-26 -1 -50 -11q-30 -15 -51 -41q-44 -61 -43 -136z" />
    <glyph glyph-name="A" unicode="A" horiz-adv-x="731" 
d="M306 710h123l295 -750h-117l-74 191h-335l-75 -191h-117zM237 251h258l-127 329h-1z" />
    <glyph glyph-name="B" unicode="B" horiz-adv-x="694" 
d="M354 710q51 -1 103 -9q51 -9 96 -37q35 -24 53 -63q17 -41 17 -86q-1 -56 -32 -102q-36 -49 -94 -69q29 -7 56 -19q31 -16 54 -41q42 -49 42 -113q-1 -40 -12 -79q-14 -44 -49 -75q-38 -30 -87 -42q-61 -15 -123 -15h-296v750h272zM195 59h159q42 -1 84 8q31 7 58 25
q41 32 41 85q-1 24 -10 46q-12 26 -37 41q-28 16 -60 22q-39 6 -77 6h-158v-233zM195 391h149q35 -1 69 8q30 8 55 25q41 28 43 78q0 48 -38 78q-24 17 -54 23q-38 8 -77 8h-147v-220z" />
    <glyph glyph-name="C" unicode="C" horiz-adv-x="740" 
d="M49 336q-1 80 21 158q22 72 69 130q50 56 121 83q62 20 128 21q48 -1 94 -11q54 -14 100 -44q81 -57 113 -150l-114 -18q-23 53 -69 87q-57 37 -124 36q-52 0 -100 -22q-44 -22 -73 -63q-32 -48 -44 -104q-11 -51 -10 -103q0 -51 10 -100q12 -56 44 -104q29 -42 74 -67
q46 -23 99 -23q62 -2 116 29q57 37 83 101l112 -17q-18 -48 -47 -90q-30 -41 -71 -69q-46 -30 -100 -43q-46 -10 -93 -11q-64 1 -124 21q-70 26 -121 81q-48 58 -71 130q-24 79 -23 162z" />
    <glyph glyph-name="D" unicode="D" horiz-adv-x="749" 
d="M357 710q68 0 133 -21q72 -26 123 -83q47 -56 68 -126q21 -71 21 -145q0 -80 -24 -156q-22 -70 -72 -124q-25 -25 -56 -45q-33 -18 -70 -31q-66 -18 -133 -19h-265v750h275zM194 59h149q55 -1 107 20q47 20 80 59q35 44 48 99q11 49 12 99q-1 54 -16 106q-15 51 -48 92
q-37 42 -89 61q-46 15 -95 16h-148v-552z" />
    <glyph glyph-name="E" unicode="E" horiz-adv-x="695" 
d="M636 710v-99h-442v-215h400v-100h-400v-237h447v-99h-559v750h554z" />
    <glyph glyph-name="F" unicode="F" horiz-adv-x="675" 
d="M628 710v-99h-434v-232h393v-100h-393v-319h-112v750h546z" />
    <glyph glyph-name="G" unicode="G" horiz-adv-x="805" 
d="M58 336q-1 86 27 167q26 72 79 128q53 53 123 78q57 17 118 19q50 -1 99 -12q53 -13 98 -45q38 -30 66 -69q26 -39 45 -81l-117 -18q-26 61 -82 97q-51 29 -109 28q-54 -1 -101 -24q-46 -26 -77 -68q-33 -47 -46 -103q-11 -48 -11 -97q0 -51 11 -100q13 -56 46 -104
q30 -42 75 -67q45 -23 96 -23q74 0 133 43q63 51 84 129v60h-204v99h316v-413h-99v131q-36 -71 -103 -111q-66 -38 -142 -38q-69 1 -131 30q-63 31 -108 87q-48 63 -69 140q-17 67 -17 137z" />
    <glyph glyph-name="H" unicode="H" horiz-adv-x="785" 
d="M194 710v-314h396v314h112v-750h-112v336h-396v-336h-112v750h112z" />
    <glyph glyph-name="I" unicode="I" horiz-adv-x="278" 
d="M195 710v-750h-113v750h113z" />
    <glyph glyph-name="J" unicode="J" horiz-adv-x="590" 
d="M144 194v-15q0 -26 6 -51q8 -27 25 -49q17 -19 41 -29q25 -10 52 -9q27 0 53 9q24 11 41 31q19 22 26 50q6 26 7 53v526h112v-534q-1 -45 -13 -89q-15 -47 -50 -83q-34 -31 -79 -46q-47 -15 -97 -16q-52 1 -100 17q-44 15 -78 47q-33 35 -47 81q-11 40 -11 83v24h112z
" />
    <glyph glyph-name="K" unicode="K" horiz-adv-x="706" 
d="M194 710v-347l324 347h136l-274 -300l312 -450h-137l-254 364l-107 -118v-246h-112v750h112z" />
    <glyph glyph-name="L" unicode="L" horiz-adv-x="610" 
d="M194 710v-651h396v-99h-508v750h112z" />
    <glyph glyph-name="M" unicode="M" horiz-adv-x="982" 
d="M239 710l253 -603h1l249 603h157v-750h-112v571h-2l-238 -571h-109l-242 571h-2v-571h-112v750h157z" />
    <glyph glyph-name="N" unicode="N" horiz-adv-x="794" 
d="M200 710l397 -573h2v573h112v-750h-118l-397 573h-1v-573h-113v750h118z" />
    <glyph glyph-name="O" unicode="O" horiz-adv-x="792" 
d="M161 335q0 -61 16 -119q17 -53 51 -97q65 -77 167 -77q44 0 85 15q50 20 84 61q35 44 50 97q16 59 17 120q-1 60 -18 118q-16 54 -51 97q-34 41 -83 62q-41 15 -84 16q-44 -1 -84 -16q-49 -20 -84 -61q-34 -44 -50 -97q-17 -59 -16 -119zM49 335q0 80 23 157
q23 72 72 130q51 57 123 84q62 21 128 22q65 -1 128 -22q72 -27 123 -84q49 -58 72 -131q23 -76 24 -156q0 -81 -23 -158q-23 -72 -71 -130q-52 -56 -124 -83q-63 -21 -129 -22q-66 1 -128 22q-72 28 -123 84q-49 59 -72 131q-23 76 -23 156z" />
    <glyph glyph-name="P" unicode="P" horiz-adv-x="675" 
d="M363 710q52 -1 103 -12q54 -12 97 -46q37 -31 55 -75q16 -47 17 -97q-1 -52 -18 -101q-18 -45 -55 -76q-44 -34 -97 -46q-51 -12 -102 -11h-169v-286h-112v750h281zM194 345h154q31 0 63 6q33 6 62 24q24 17 37 44q12 29 13 61q-1 30 -13 59q-14 25 -37 42q-29 17 -62 24
q-30 6 -61 6h-156v-266z" />
    <glyph glyph-name="Q" unicode="Q" horiz-adv-x="803" 
d="M49 335q0 80 23 157q23 72 72 130q51 57 123 84q62 21 128 22q65 -1 128 -22q72 -27 123 -84q49 -58 72 -131q23 -76 24 -156q0 -85 -25 -165q-22 -66 -65 -119l86 -77l-79 -76l-88 87q-83 -44 -176 -43q-66 1 -128 22q-72 28 -123 84q-49 59 -72 131q-23 76 -23 156z
M494 193l76 -68q29 39 43 87q18 60 18 123q-1 60 -18 118q-16 54 -51 97q-34 41 -83 62q-41 15 -84 16q-44 -1 -84 -16q-49 -20 -84 -61q-34 -44 -50 -97q-17 -59 -16 -119q0 -61 16 -119q17 -53 51 -97q65 -77 167 -77q51 -1 98 20l-67 67z" />
    <glyph glyph-name="R" unicode="R" horiz-adv-x="694" 
d="M374 710q47 -1 93 -11q50 -12 90 -43q35 -28 53 -69q16 -41 17 -86q0 -60 -32 -109q-35 -48 -89 -71v-1q49 -19 78 -64q26 -46 29 -99q4 -51 14 -101t29 -96h-118q-14 34 -20 68q-10 58 -14 117q-3 27 -12 52q-10 24 -28 41q-36 32 -85 32h-185v-310h-112v750h292z
M194 370h172q26 0 52 5q29 8 52 25q44 37 44 94q0 55 -44 89q-25 16 -54 22q-28 6 -55 6h-167v-241z" />
    <glyph glyph-name="S" unicode="S" horiz-adv-x="683" 
d="M165 173q23 -59 73 -97q53 -36 118 -34q58 -2 106 31q19 14 32 36q10 18 11 40q-2 21 -12 40q-13 19 -31 34q-27 20 -58 35q-38 18 -77 33q-62 20 -120 48q-46 21 -85 53q-31 27 -48 64q-10 27 -10 57q1 37 14 73q21 45 59 76q42 32 92 49q54 16 112 17q90 1 168 -43
q81 -51 113 -142l-122 -17q-20 45 -60 72q-48 30 -104 30q-55 0 -101 -28q-21 -14 -34 -35q-12 -19 -12 -42q0 -18 7 -35q13 -21 34 -36q26 -18 55 -30q37 -15 75 -28q62 -22 122 -52q47 -24 87 -58q32 -28 50 -66q11 -28 12 -57q-1 -49 -22 -92q-23 -43 -62 -71
q-45 -31 -99 -45q-48 -10 -96 -11q-57 1 -112 16q-50 15 -92 44q-41 32 -70 76q-23 36 -37 77z" />
    <glyph glyph-name="T" unicode="T" horiz-adv-x="598" 
d="M591 710v-99h-237v-651h-112v651h-236v99h585z" />
    <glyph glyph-name="U" unicode="U" horiz-adv-x="764" 
d="M191 710v-452q-1 -47 12 -93q12 -39 40 -70q28 -30 68 -43q34 -11 71 -10q35 0 68 9q39 12 68 41q27 30 40 70q14 47 14 96v452h112v-455q-1 -58 -15 -114q-17 -63 -59 -112q-42 -43 -99 -65q-63 -22 -129 -22q-68 0 -132 22q-57 22 -99 66q-42 49 -58 111
q-15 56 -14 114v455h112z" />
    <glyph glyph-name="V" unicode="V" horiz-adv-x="689" 
d="M127 710l217 -611h2l216 611h120l-275 -750h-124l-277 750h121z" />
    <glyph glyph-name="W" unicode="W" horiz-adv-x="1102" 
d="M130 710l172 -601h2l181 601h129l185 -601h2l171 601h123l-230 -750h-129l-185 609h-1l-182 -609h-128l-233 750h123z" />
    <glyph glyph-name="X" unicode="X" horiz-adv-x="668" 
d="M146 710l187 -274l188 274h130l-253 -369l261 -381h-130l-196 286l-195 -286h-130l260 381l-252 369h130z" />
    <glyph glyph-name="Y" unicode="Y" horiz-adv-x="679" 
d="M137 710l205 -336h2l198 336h131l-274 -453v-297h-113v297l-280 453h131z" />
    <glyph glyph-name="Z" unicode="Z" horiz-adv-x="679" 
d="M483 611h-420v99h571v-82l-445 -567h448v-101h-598v86z" />
    <glyph glyph-name="bracketleft" unicode="[" horiz-adv-x="395" 
d="M354 710v-89h-128v-768h128v-90h-228v947h228z" />
    <glyph glyph-name="backslash" unicode="\" horiz-adv-x="420" 
d="M136 710l252 -750h-105l-252 750h105z" />
    <glyph glyph-name="bracketright" unicode="]" horiz-adv-x="394" 
d="M267 710v-947h-227v90h128v768h-128v89h227z" />
    <glyph glyph-name="asciicircum" unicode="^" horiz-adv-x="649" 
d="M283 710h76l232 -392h-112l-158 278l-156 -278h-107z" />
    <glyph glyph-name="underscore" unicode="_" horiz-adv-x="604" 
d="M569 -96v-95h-535v95h535z" />
    <glyph glyph-name="grave" unicode="`" horiz-adv-x="386" 
d="M175 710l158 -191h-105l-175 191h122z" />
    <glyph glyph-name="a" unicode="a" horiz-adv-x="610" 
d="M45 85q0 39 16 75q25 47 70 75q57 34 122 51q83 21 169 32v25q-1 41 -32 67q-20 15 -44 20t-47 6q-45 0 -84 -21q-37 -22 -53 -61l-102 14q14 37 38 68q25 30 58 51q69 39 148 38q41 -1 82 -9q43 -10 81 -35q31 -24 48 -59q16 -39 17 -80v-287q-1 -9 2 -17q3 -9 10 -13
q9 -4 19 -4q14 0 28 3v-70q-37 -11 -75 -12q-27 1 -52 13q-21 10 -30 30q-5 19 -7 40q-86 -81 -204 -83q-35 1 -69 10q-33 10 -60 30q-49 39 -49 103zM155 97q-1 -29 21 -47q13 -10 29 -15q21 -5 42 -4q46 0 89 18q46 20 86 54v125q-54 -7 -108 -17q-45 -10 -88 -28
q-34 -15 -57 -43q-14 -19 -14 -43z" />
    <glyph glyph-name="b" unicode="b" horiz-adv-x="635" 
d="M174 710v-262q35 34 79 56q45 20 94 21q46 -1 90 -15q50 -18 86 -59q34 -43 49 -97q16 -61 17 -124q-1 -64 -17 -125q-16 -52 -51 -94q-37 -38 -88 -55q-44 -13 -90 -14q-96 3 -169 65v-47h-109v750h109zM328 430q-41 -1 -78 -19q-43 -22 -76 -57v-254q65 -61 154 -63
q67 -1 110 51q21 29 31 64q10 38 11 78q-1 39 -10 77q-9 36 -29 67q-43 56 -113 56z" />
    <glyph glyph-name="c" unicode="c" horiz-adv-x="596" 
d="M44 234q-1 62 19 121q20 54 59 96q41 40 95 59q46 14 95 15q39 -1 78 -10q43 -12 79 -37q60 -45 84 -116l-109 -14q-41 81 -132 83q-66 0 -110 -47q-24 -29 -36 -64q-13 -42 -12 -86q-1 -44 11 -86q11 -35 35 -64q43 -48 109 -48q47 -1 87 25q34 26 52 66l107 -15
q-26 -75 -88 -122q-37 -26 -80 -38q-39 -9 -78 -10q-47 1 -92 16q-54 19 -94 59q-39 42 -59 96q-20 59 -20 121z" />
    <glyph glyph-name="d" unicode="d" horiz-adv-x="633" 
d="M46 234q-1 63 17 125q16 52 51 94q36 40 87 58q42 13 87 14q48 0 93 -19q44 -20 78 -53v257h110v-750h-110v48q-72 -63 -167 -66q-46 1 -90 15q-51 18 -87 57q-36 42 -52 95q-18 61 -17 125zM308 37q86 3 151 62v261q-33 33 -75 53q-37 16 -76 17q-68 0 -111 -52
q-22 -29 -32 -65q-11 -39 -10 -79q-1 -41 10 -79q10 -36 31 -66q43 -52 112 -52z" />
    <glyph glyph-name="e" unicode="e" horiz-adv-x="611" 
d="M46 233q0 59 18 117q18 53 55 96q39 43 93 63q46 15 95 16q48 -1 94 -15q53 -19 92 -60q36 -40 54 -92q17 -56 18 -113v-48h-410q-1 -36 11 -69q11 -31 34 -54q48 -43 113 -42q45 -1 86 20q40 22 63 62l100 -16q-33 -77 -103 -120q-37 -20 -77 -29q-35 -6 -70 -7
q-50 1 -97 15q-55 19 -95 59q-38 42 -56 96q-19 59 -18 121zM455 281q-1 62 -43 109q-43 44 -105 45q-63 -1 -107 -44q-43 -47 -45 -110h300z" />
    <glyph glyph-name="f" unicode="f" horiz-adv-x="389" 
d="M123 510v94q-1 24 8 47q10 26 32 44q23 16 51 23q30 7 62 8q49 0 97 -14v-93q-31 15 -65 16q-30 0 -55 -16q-22 -18 -21 -45v-64h145v-89h-145v-460h-109v460h-112v89h112z" />
    <glyph glyph-name="g" unicode="g" horiz-adv-x="636" 
d="M48 236q0 51 12 101q14 56 49 102q32 41 78 64q46 21 98 22q50 0 97 -20q45 -22 79 -58v63h110v-497q0 -58 -17 -114q-18 -50 -55 -87q-43 -38 -99 -53q-52 -12 -105 -13q-42 1 -82 11q-37 10 -70 30q-60 41 -84 108l100 16q18 -35 53 -54q41 -21 87 -21q36 1 71 12
q30 12 52 35q22 26 31 59q7 29 8 58v30q-35 -35 -80 -57q-44 -20 -92 -21q-52 1 -100 22q-47 22 -79 61q-35 45 -50 101q-12 49 -12 100zM310 47q40 0 77 18q42 22 74 57v228q-31 37 -74 60q-37 19 -77 20q-64 -1 -107 -47q-23 -29 -35 -64q-12 -41 -11 -83q-1 -41 11 -80
q11 -34 34 -62q43 -47 108 -47z" />
    <glyph glyph-name="h" unicode="h" horiz-adv-x="613" 
d="M175 710v-271q38 41 89 66q42 19 89 20q45 0 88 -15q36 -15 62 -43q25 -32 35 -71q8 -35 9 -70v-366h-109v345q-1 22 -6 45q-6 25 -22 46q-16 18 -39 29q-25 9 -52 10q-43 -1 -81 -19q-36 -19 -63 -48v-408h-110v750h110z" />
    <glyph glyph-name="i" unicode="i" horiz-adv-x="240" 
d="M175 510v-550h-110v550h110zM175 710v-117h-110v117h110z" />
    <glyph glyph-name="j" unicode="j" horiz-adv-x="246" 
d="M-35 -119l44 -2q26 0 45 17q18 21 17 48v566h110v-584q-1 -25 -7 -50q-8 -28 -27 -50q-20 -21 -46 -30q-31 -10 -63 -11q-37 0 -73 5v91zM181 710v-117h-110v117h110z" />
    <glyph glyph-name="k" unicode="k" horiz-adv-x="573" 
d="M175 710v-436l240 236h134l-233 -230l251 -321h-128l-196 249l-68 -67v-182h-110v751h110z" />
    <glyph glyph-name="l" unicode="l" horiz-adv-x="240" 
d="M175 710v-750h-110v750h110z" />
    <glyph glyph-name="m" unicode="m" horiz-adv-x="954" 
d="M174 510v-65q36 38 85 60q42 19 89 20q28 0 56 -6q25 -6 47 -19q41 -27 63 -71h1q39 45 93 73q44 21 93 23q42 -1 82 -14q35 -14 60 -42q26 -31 36 -70q8 -35 9 -70v-369h-110v354q1 47 -28 84q-34 37 -84 37q-37 -2 -68 -21q-38 -22 -66 -56v-398h-110v349q-1 22 -6 44
q-7 25 -22 45q-32 36 -79 37q-38 -1 -71 -18q-40 -22 -70 -56v-401h-109v550h109z" />
    <glyph glyph-name="n" unicode="n" horiz-adv-x="613" 
d="M174 510v-71q38 41 89 66q42 19 89 20q35 -1 70 -9q39 -10 69 -36q28 -27 42 -64q14 -44 14 -90v-366h-110v345q-1 22 -6 45q-6 25 -22 46q-16 18 -38 29q-25 9 -52 10q-43 -1 -81 -19q-36 -19 -64 -48v-408h-109v550h109z" />
    <glyph glyph-name="o" unicode="o" horiz-adv-x="625" 
d="M44 235q0 59 18 116q19 54 57 96q41 42 96 62q47 15 97 16q50 -1 97 -16q55 -19 96 -61q38 -42 57 -96q18 -57 19 -117q0 -62 -20 -120q-18 -55 -57 -97q-40 -41 -95 -60q-48 -15 -97 -16q-50 1 -97 16q-55 20 -95 61q-38 43 -57 97q-19 58 -19 119zM154 235
q-1 -44 12 -87q11 -36 35 -64q44 -49 111 -48q66 -1 112 48q23 29 35 64q11 43 12 87q-1 43 -13 86q-12 35 -36 63q-45 47 -110 47q-75 -1 -120 -61q-22 -32 -31 -69q-7 -33 -7 -66z" />
    <glyph glyph-name="p" unicode="p" horiz-adv-x="636" 
d="M175 510v-60q35 34 79 55q45 20 94 21q45 -1 88 -14q50 -19 86 -59q35 -42 51 -96q16 -62 17 -126q-1 -64 -17 -126q-16 -52 -52 -94q-37 -38 -88 -55q-44 -13 -90 -14q-43 1 -82 16q-47 18 -86 50v-245h-110v747h110zM328 431q-41 -1 -77 -19q-43 -22 -76 -57v-255
q64 -61 153 -63q68 -1 111 51q21 30 31 65q9 38 10 78q-1 41 -10 81q-10 36 -31 66q-22 28 -54 42q-28 10 -57 11z" />
    <glyph glyph-name="q" unicode="q" horiz-adv-x="636" 
d="M46 234q-1 63 17 125q16 52 51 94q36 40 87 58q42 13 87 14q101 -2 173 -73v58h109v-747h-109v248q-37 -31 -81 -50q-43 -18 -88 -19q-46 1 -90 15q-51 18 -87 57q-36 42 -52 95q-18 61 -17 125zM308 37q87 3 153 63v258q-33 34 -76 54q-37 17 -77 18q-68 -1 -111 -52
q-22 -30 -32 -65q-11 -39 -10 -79q0 -40 10 -79q10 -36 32 -65q42 -53 111 -53z" />
    <glyph glyph-name="r" unicode="r" horiz-adv-x="383" 
d="M174 510v-105q36 54 94 86q50 29 107 32v-90q-58 -3 -108 -30q-56 -30 -93 -81v-363h-109v551h109z" />
    <glyph glyph-name="s" unicode="s" horiz-adv-x="545" 
d="M138 109q17 -41 54 -63q40 -21 86 -19q40 -1 75 20q32 20 35 58q-1 13 -7 26q-12 16 -29 27q-21 13 -44 22q-28 11 -56 21q-48 14 -93 34q-34 15 -63 40q-43 38 -43 95q0 34 17 64q20 31 50 51q37 22 78 32q37 7 75 8q68 1 129 -30q62 -37 91 -103l-104 -18
q-18 33 -50 51q-32 15 -66 15q-42 0 -77 -20q-31 -19 -33 -54q0 -14 8 -26t21 -21q19 -13 41 -22q27 -11 56 -19q49 -13 97 -32q37 -16 69 -40q47 -39 48 -100q-2 -70 -56 -114q-34 -25 -74 -37q-48 -12 -98 -13q-80 0 -149 38q-63 38 -91 107z" />
    <glyph glyph-name="t" unicode="t" horiz-adv-x="360" 
d="M105 510v143h108v-143h126v-89h-126v-330q-2 -26 17 -43q10 -8 23 -11q16 -4 32 -3q27 -1 53 11v-89q-51 -14 -103 -14q-29 0 -56 8q-23 7 -42 23q-18 17 -26 40q-7 22 -6 45v363h-96v89h96z" />
    <glyph glyph-name="u" unicode="u" horiz-adv-x="613" 
d="M174 510v-348q-2 -52 30 -92q16 -19 40 -29q26 -10 54 -9q41 0 78 18q35 19 62 49v411h109v-550h-109v68q-39 -42 -91 -66q-42 -19 -88 -20q-46 0 -89 15q-36 14 -62 43q-26 31 -35 70q-9 35 -8 71v369h109z" />
    <glyph glyph-name="v" unicode="v" horiz-adv-x="566" 
d="M125 510l156 -446h2l156 446h120l-209 -550h-135l-210 550h120z" />
    <glyph glyph-name="w" unicode="w" horiz-adv-x="879" 
d="M126 510l127 -439h1l113 439h144l117 -439h2q28 100 55 201q32 119 67 238h120l-174 -550h-139l-119 429h-1q-59 -215 -116 -429h-138l-179 550h120z" />
    <glyph glyph-name="x" unicode="x" horiz-adv-x="545" 
d="M132 510l140 -190l140 190h123l-202 -273l206 -277h-123l-144 194l-143 -194h-123l204 277l-201 273h123z" />
    <glyph glyph-name="y" unicode="y" horiz-adv-x="568" 
d="M123 510l165 -403l156 403h118l-274 -681q-16 -41 -54 -65q-35 -19 -74 -18q-38 0 -74 7v94q22 -4 46 -5q23 0 43 11q17 11 26 29l34 88l-230 540h118z" />
    <glyph glyph-name="z" unicode="z" horiz-adv-x="558" 
d="M363 421h-311v89h458v-72l-328 -389h340v-89h-486v71z" />
    <glyph glyph-name="braceleft" unicode="{" horiz-adv-x="407" 
d="M87 280q37 9 57 41q23 39 23 85v163q-1 25 6 50q8 28 26 50q20 21 46 30q31 11 64 11h59v-90h-39q-27 0 -46 -18q-9 -12 -13 -28q-4 -15 -3 -30v-158q0 -48 -18 -91q-16 -37 -51 -56q35 -20 50 -57q19 -49 19 -101v-150q-1 -15 3 -30q3 -15 12 -28q19 -20 47 -19h39v-91
h-59q-30 1 -59 9q-26 9 -46 28q-21 22 -30 51q-8 28 -7 56v152q-1 22 -4 44q-4 24 -15 44q-22 36 -61 52v81v0z" />
    <glyph glyph-name="bar" unicode="|" horiz-adv-x="261" 
d="M180 710v-947h-100v947h100z" />
    <glyph glyph-name="braceright" unicode="}" horiz-adv-x="407" 
d="M97 710q32 0 63 -11q27 -9 46 -30q19 -22 27 -50q6 -25 7 -50v-163q-1 -46 22 -85q20 -32 58 -41v-81q-40 -16 -62 -52q-11 -20 -15 -44q-4 -22 -3 -44v-152q-1 -28 -8 -56q-9 -29 -30 -51q-20 -19 -47 -28q-29 -8 -58 -9h-58v91h38q27 -1 46 19q10 13 13 28t4 30v150
q-1 52 18 101q15 37 50 57q-36 19 -51 56q-18 43 -17 91v158q-1 15 -4 30q-4 16 -13 28q-19 18 -46 18h-38v90h58z" />
    <glyph glyph-name="asciitilde" unicode="~" horiz-adv-x="662" 
d="M73 344q58 71 151 74q37 -1 73 -13q38 -15 74 -35q21 -10 42 -18q22 -7 45 -7q31 1 58 18q36 22 63 56l10 -95q-28 -34 -65 -55q-35 -19 -75 -19q-26 0 -50 7q-38 13 -74 33q-29 15 -61 25q-25 7 -50 8q-40 -1 -74 -21q-34 -22 -58 -54l-9 96v0z" />
    <glyph glyph-name="uni007F" 
 />
    <glyph glyph-name="exclamdown" unicode="&#xa1;" horiz-adv-x="275" 
d="M82 153l7 137h96l8 -137v-393h-111v393zM77 510h120v-134h-120v134z" />
    <glyph glyph-name="cent" unicode="&#xa2;" horiz-adv-x="650" 
d="M72 234q-1 62 19 121q20 54 59 96q40 40 95 59q46 14 95 15q22 0 44 -3l62 174h88l-71 -199q42 -23 70 -62q28 -38 42 -83l-108 -14q-12 35 -39 61l-127 -359q17 -4 35 -3q44 -1 82 23q39 30 57 77l107 -15q-16 -45 -42 -84q-25 -34 -59 -56q-29 -19 -63 -29
q-41 -10 -82 -11q-34 1 -67 8l-56 -158h-87l67 191q-56 36 -86 95q-36 74 -35 156zM182 234q-1 -47 13 -92q11 -33 34 -59l122 346q-6 0 -11 1q-65 0 -110 -47q-25 -28 -36 -63q-13 -43 -12 -86z" />
    <glyph glyph-name="sterling" unicode="&#xa3;" horiz-adv-x="650" 
d="M66 24q47 33 77 82q24 43 25 94q0 41 -13 81h-124v85h86q-20 36 -32 75q-8 29 -8 59q0 37 12 73q16 43 51 73q37 31 82 46q52 15 107 16q54 -1 105 -17q46 -16 82 -49q35 -36 53 -82q15 -41 20 -84l-109 -18q-3 27 -12 54q-11 30 -32 55q-44 46 -107 46q-29 -1 -56 -9
q-26 -8 -48 -24q-39 -34 -38 -85q-1 -31 8 -59q11 -37 32 -70h212v-85h-172q10 -39 11 -78q0 -41 -17 -77q-23 -44 -61 -75l2 -1q43 28 96 32q25 -1 50 -7q23 -8 45 -19q28 -13 58 -13q38 0 72 18q40 24 69 61l26 -87q-71 -84 -181 -85q-25 1 -49 5q-32 8 -62 21
q-50 21 -103 21q-67 -3 -122 -40l-35 67v0z" />
    <glyph glyph-name="currency" unicode="&#xa4;" horiz-adv-x="774" 
d="M227 334q1 -70 52 -118q46 -40 108 -41q60 0 106 41q51 48 53 118q-2 70 -53 118q-46 41 -106 42q-62 -2 -108 -42q-51 -48 -52 -118zM117 334q1 79 46 146q-35 34 -69 69l78 78l69 -69q66 44 146 46q79 -2 146 -46l69 69l78 -78l-69 -69q43 -67 45 -146q-1 -80 -45 -146
q34 -35 69 -68l-78 -78l-69 68q-67 -45 -146 -46q-80 1 -146 46l-69 -68l-78 78l69 68q-46 65 -46 146z" />
    <glyph glyph-name="yen" unicode="&#xa5;" horiz-adv-x="650" 
d="M138 710l189 -321h2l181 321h131l-247 -411h208v-97h-218v-242h-113v242h-225v97h214l-253 411h131z" />
    <glyph glyph-name="brokenbar" unicode="&#xa6;" horiz-adv-x="261" 
d="M180 710v-407h-100v407h100zM180 169v-406h-100v406h100z" />
    <glyph glyph-name="section" unicode="&#xa7;" horiz-adv-x="713" 
d="M80 286q0 49 30 88q37 45 93 62q-28 22 -42 54t-14 68q-1 74 55 123q31 24 68 35q39 11 80 12q43 -1 84 -12q37 -12 66 -36q29 -27 46 -62q13 -32 20 -65l-105 -14q-5 24 -15 46q-9 19 -24 33q-31 24 -70 23q-43 0 -75 -28q-23 -24 -21 -57q0 -25 13 -46q16 -22 40 -34
q52 -27 107 -47q37 -14 73 -30q36 -21 69 -46q26 -20 45 -46q30 -44 29 -98q-1 -52 -32 -92q-36 -45 -89 -62q27 -21 42 -52q14 -33 12 -71q-2 -74 -58 -122q-31 -24 -68 -36q-39 -11 -80 -12q-43 1 -83 12q-38 12 -68 36q-30 27 -47 64q-14 32 -19 67l104 13q1 -24 11 -47
q8 -19 24 -34q32 -25 75 -25q40 0 71 24q26 25 28 60q1 30 -16 54q-21 24 -49 41q-85 44 -173 82q-33 16 -63 37q-25 18 -44 42q-31 44 -30 98zM190 287q0 -31 21 -55q30 -33 71 -53q29 -15 59 -31q44 -24 90 -45q38 10 66 39q24 25 26 60q-1 40 -30 69q-40 37 -88 64
q-63 31 -127 56q-37 -11 -63 -40q-25 -27 -25 -64z" />
    <glyph glyph-name="dieresis" unicode="&#xa8;" horiz-adv-x="547" 
d="M211 674v-102h-131v102h131zM466 674v-102h-131v102h131z" />
    <glyph glyph-name="copyright" unicode="&#xa9;" horiz-adv-x="876" 
d="M89 330q0 -76 31 -144q30 -66 84 -115q100 -87 234 -90q133 3 233 90q53 49 83 115q31 68 32 144q-1 75 -32 144q-30 66 -83 116q-100 88 -233 91q-134 -3 -234 -91q-54 -50 -84 -116q-31 -69 -31 -144zM50 330q0 83 34 160q34 74 93 129q112 98 261 101q148 -3 259 -101
q59 -55 93 -129q34 -77 35 -160q-1 -84 -35 -161q-34 -73 -93 -127q-111 -97 -259 -100q-149 3 -261 100q-59 54 -93 127q-34 77 -34 161zM200 331q0 55 19 107q19 47 56 82t86 50q39 12 81 13q35 -1 69 -9q38 -10 71 -32q54 -40 75 -103l-92 -12q-15 33 -45 54
q-36 22 -78 21q-32 -1 -61 -13q-29 -14 -50 -38q-21 -27 -31 -61q-7 -29 -7 -59t7 -60q9 -33 30 -61q41 -51 108 -52q41 -2 78 19q33 21 51 57l91 -14q-25 -65 -81 -104q-64 -41 -139 -39q-41 0 -80 12q-48 16 -84 51q-36 36 -55 84q-19 51 -19 107z" />
    <glyph glyph-name="ordfeminine" unicode="&#xaa;" horiz-adv-x="433" 
d="M80 507q1 49 41 77q28 17 59 26q41 11 84 16v8q-1 20 -16 33q-18 12 -40 12q-46 -1 -65 -40l-55 10q15 38 49 60q34 19 73 19q20 -1 41 -5q22 -5 40 -18q16 -12 24 -31q8 -20 9 -42v-135q-1 -10 7 -14q10 -3 21 0v-38q-19 -5 -37 -5q-15 0 -28 6q-12 5 -17 16q-3 6 -4 14
q-18 -18 -41 -28q-28 -12 -58 -11q-35 -1 -63 19q-24 20 -24 51zM140 513q-1 -13 9 -20q13 -8 30 -7q48 0 85 32v60q-48 -3 -92 -23q-16 -8 -26 -21q-6 -10 -6 -21z" />
    <glyph glyph-name="guillemotleft" unicode="&#xab;" horiz-adv-x="620" 
d="M209 510h100l-106 -262l106 -261h-100l-129 261zM439 510h100l-106 -262l106 -261h-100l-129 261z" />
    <glyph glyph-name="logicalnot" unicode="&#xac;" horiz-adv-x="661" 
d="M611 385v-278h-109v183h-453v95h562z" />
    <glyph glyph-name="uni00AD" unicode="&#xad;" horiz-adv-x="511" 
d="M461 385v-94h-412v94h412z" />
    <glyph glyph-name="registered" unicode="&#xae;" horiz-adv-x="876" 
d="M50 330q0 83 34 160q34 74 93 129q112 98 261 101q148 -3 259 -101q59 -55 93 -129q34 -77 35 -160q-1 -84 -35 -161q-34 -73 -93 -127q-111 -97 -259 -100q-149 3 -261 100q-59 54 -93 127q-34 77 -34 161zM89 330q0 -76 31 -144q30 -66 84 -115q100 -87 234 -90
q133 3 233 90q53 49 83 115q31 68 32 144q-1 75 -32 144q-30 66 -83 116q-100 88 -233 91q-134 -3 -234 -91q-54 -50 -84 -116q-31 -69 -31 -144zM569 92l-117 190h-117v-190h-89v487h204q50 0 98 -11q29 -7 54 -21q28 -18 44 -47q15 -33 15 -68q0 -51 -32 -89
q-19 -19 -43 -31q-26 -13 -54 -17l138 -203h-101zM571 432q1 34 -27 54q-20 11 -42 15q-31 5 -63 5h-104v-151h104q29 -1 59 5q23 4 42 16q30 20 31 56z" />
    <glyph glyph-name="macron" unicode="&#xaf;" horiz-adv-x="507" 
d="M433 719v-79h-360v79h360z" />
    <glyph glyph-name="degree" unicode="&#xb0;" horiz-adv-x="411" 
d="M133 612q0 -28 18 -49q23 -23 55 -23q31 0 53 23q18 21 19 49q-1 28 -19 49q-22 24 -53 25q-33 -1 -55 -25q-18 -21 -18 -49zM80 612q1 55 41 94q36 32 85 33q54 -2 91 -42q32 -37 33 -85q-2 -55 -41 -93q-36 -32 -83 -32q-49 0 -85 32q-40 38 -41 93z" />
    <glyph glyph-name="plusminus" unicode="&#xb1;" horiz-adv-x="650" 
d="M274 448v179h100v-179h223v-95h-223v-178h-100v178h-223v95h223zM597 107v-95h-546v95h546z" />
    <glyph glyph-name="twosuperior" unicode="&#xb2;" horiz-adv-x="425" 
d="M80 392q15 34 39 61q40 39 87 68q16 11 31 23q14 11 25 25q14 21 16 48q0 26 -20 43q-20 14 -44 14q-56 -3 -72 -57l-59 8q10 48 49 78q37 25 82 25q22 -1 45 -6q24 -6 45 -21q36 -32 36 -81q0 -41 -23 -75q-11 -14 -24 -26q-28 -24 -60 -44q-23 -16 -44 -36
q-14 -14 -24 -30h179v-54h-264v37z" />
    <glyph glyph-name="threesuperior" unicode="&#xb3;" horiz-adv-x="429" 
d="M141 457q5 -26 27 -42q23 -13 50 -12q28 -1 51 16q18 17 18 43q-1 25 -19 41q-24 18 -54 18h-33v51h33q26 -1 46 15q16 15 17 37q-1 23 -19 37q-19 13 -41 13q-25 0 -45 -14q-18 -15 -23 -37l-61 8q10 45 47 72q37 25 83 25q25 -1 50 -8q22 -7 40 -22q29 -27 30 -67
q0 -27 -14 -50q-16 -24 -43 -32q28 -8 47 -30q20 -27 20 -60q0 -51 -38 -83q-21 -16 -46 -22q-23 -5 -46 -5q-49 -1 -89 24q-39 28 -49 75z" />
    <glyph glyph-name="acute" unicode="&#xb4;" horiz-adv-x="446" 
d="M253 760h120l-197 -192h-103z" />
    <glyph glyph-name="mu" unicode="&#xb5;" horiz-adv-x="663" 
d="M175 510v-364q-1 -46 31 -79q40 -35 94 -34q37 0 71 17q39 20 67 56v404h110v-402q-2 -31 12 -57q11 -19 34 -19q36 2 63 29l5 -67q-25 -24 -57 -37t-65 -14q-31 0 -56 17q-25 21 -33 53q-32 -33 -74 -53q-36 -16 -75 -17q-43 0 -81 20q-30 17 -46 47v-217h-110v717h110z
" />
    <glyph glyph-name="paragraph" unicode="&#xb6;" horiz-adv-x="587" 
d="M59 561q0 32 8 62q11 36 37 62q28 25 64 36q43 13 89 13h247v-834h-78v775h-91v-775h-78v494q-46 -1 -89 12q-36 12 -64 37q-25 25 -37 59q-8 29 -8 59z" />
    <glyph glyph-name="periodcentered" unicode="&#xb7;" 
d="M590 431v-182h-181v182h181z" />
    <glyph glyph-name="cedilla" unicode="&#xb8;" horiz-adv-x="416" 
d="M100 -182q42 -29 95 -31q24 0 45 13q15 11 16 28q-1 16 -13 26q-17 11 -36 10q-28 0 -52 -13l-23 19l43 90h56l-30 -63q18 7 39 7q39 2 71 -21q23 -21 24 -53q-1 -39 -34 -61q-20 -13 -42 -18q-27 -6 -53 -7q-69 -1 -126 36z" />
    <glyph glyph-name="onesuperior" unicode="&#xb9;" horiz-adv-x="311" 
d="M177 724h53v-369h-60v299l-68 -47l-22 49z" />
    <glyph glyph-name="ordmasculine" unicode="&#xba;" horiz-adv-x="440" 
d="M80 583q0 31 10 60q11 27 31 47q42 38 99 38q56 0 98 -37q20 -21 30 -48q10 -29 11 -60q-1 -33 -12 -63q-11 -27 -31 -48q-41 -37 -96 -36q-57 -1 -98 37q-21 21 -31 48q-11 30 -11 62zM140 583q-1 -37 19 -67q24 -28 61 -28q36 0 59 28q20 30 20 67q0 36 -20 65
q-24 27 -59 28q-37 -1 -60 -28q-21 -29 -20 -65z" />
    <glyph glyph-name="guillemotright" unicode="&#xbb;" horiz-adv-x="620" 
d="M410 510l129 -262l-129 -261h-100l107 261l-107 262h100zM180 510l129 -262l-129 -261h-100l107 261l-107 262h100z" />
    <glyph glyph-name="onequarter" unicode="&#xbc;" horiz-adv-x="1004" 
d="M747 478h124v-340h65v-68h-65v-110h-84v110h-265v54zM693 702h91l-468 -742h-90zM207 702h79v-519h-85v432l-106 -76l-28 67zM787 138v261l-166 -261h166z" />
    <glyph glyph-name="onehalf" unicode="&#xbd;" horiz-adv-x="1079" 
d="M631 8q22 47 58 85q24 23 50 43q38 27 77 52q46 29 82 70q21 30 23 68q0 36 -28 61q-31 23 -69 22q-38 0 -67 -23q-29 -25 -37 -61l-85 12q13 59 59 99q57 45 130 45q32 -1 63 -8q36 -9 65 -30q26 -20 41 -50q13 -30 14 -63q-1 -30 -9 -59q-9 -24 -23 -46
q-15 -20 -34 -37q-41 -34 -85 -64q-34 -23 -64 -51q-20 -20 -36 -42h254v-71h-379v48zM693 702h91l-468 -742h-90zM207 702h79v-519h-85v432l-106 -76l-28 67z" />
    <glyph glyph-name="threequarters" unicode="&#xbe;" horiz-adv-x="1107" 
d="M850 478h124v-340h65v-68h-65v-110h-84v110h-265v54zM153 340q8 -37 38 -60q33 -21 73 -19q23 -1 45 6q18 6 33 19q25 25 25 62q0 35 -26 58q-16 13 -35 19q-23 6 -46 7h-46v68h46q34 -1 62 18q29 21 30 57q-1 33 -27 54q-28 19 -62 19q-38 0 -68 -22q-25 -22 -31 -54
l-86 14q15 63 68 101q54 33 119 33q36 -1 72 -11q31 -10 56 -30q44 -38 45 -95q0 -39 -20 -72q-24 -31 -61 -44q41 -9 68 -40q29 -37 28 -84q-1 -35 -15 -66q-15 -30 -42 -51q-30 -22 -67 -31q-32 -7 -65 -7q-68 -1 -126 33q-56 38 -71 104zM796 702h91l-468 -742h-90z
M890 138v261l-166 -261h166z" />
    <glyph glyph-name="questiondown" unicode="&#xbf;" horiz-adv-x="567" 
d="M532 -44q-8 -40 -23 -78q-19 -43 -52 -76q-33 -30 -74 -45q-46 -14 -93 -15q-44 1 -87 10q-47 10 -86 39q-34 27 -51 67q-18 45 -17 93q-2 47 19 87q13 23 31 42q22 23 47 44q12 10 26 21q30 20 51 50q14 25 14 54v41h110v-41q0 -45 -20 -84q-9 -15 -21 -29
q-21 -20 -43 -38q-5 -4 -9 -7q-24 -19 -46 -39q-17 -15 -30 -34q-20 -30 -19 -67q-1 -45 32 -76q19 -16 42 -24q28 -8 57 -9q54 -1 94 35q20 21 31 47q9 25 13 50zM233 376v134h118v-134h-118z" />
    <glyph glyph-name="Agrave" unicode="&#xc0;" horiz-adv-x="731" 
d="M306 710h123l295 -750h-117l-74 191h-335l-75 -191h-117zM237 251h258l-127 329h-1zM317 1007l181 -192h-104l-196 192h119z" />
    <glyph glyph-name="Aacute" unicode="&#xc1;" horiz-adv-x="731" 
d="M306 710h123l295 -750h-117l-74 191h-335l-75 -191h-117zM237 251h258l-127 329h-1zM538 1001l-197 -192h-103l180 192h120z" />
    <glyph glyph-name="Acircumflex" unicode="&#xc2;" horiz-adv-x="731" 
d="M306 710h123l295 -750h-117l-74 191h-335l-75 -191h-117zM237 251h258l-127 329h-1zM316 1007h93l187 -192h-114l-119 131l-119 -131h-114z" />
    <glyph glyph-name="Atilde" unicode="&#xc3;" horiz-adv-x="731" 
d="M306 710h123l295 -750h-117l-74 191h-335l-75 -191h-117zM237 251h258l-127 329h-1zM167 842q2 55 37 97q31 34 78 35q23 -2 45 -11q27 -12 53 -27q14 -8 29 -14q13 -6 27 -6q20 0 33 16q14 18 17 41h75q-2 -29 -12 -56q-9 -25 -26 -45q-35 -35 -85 -34q-23 0 -43 10
q-27 12 -52 27q-14 8 -28 14q-13 6 -26 7q-19 -1 -31 -15q-14 -17 -16 -39h-75z" />
    <glyph glyph-name="Adieresis" unicode="&#xc4;" horiz-adv-x="731" 
d="M306 710h123l295 -750h-117l-74 191h-335l-75 -191h-117zM237 251h258l-127 329h-1zM304 946v-102h-131v102h131zM559 946v-102h-131v102h131z" />
    <glyph glyph-name="Aring" unicode="&#xc5;" horiz-adv-x="731" 
d="M306 710h123l295 -750h-117l-74 191h-335l-75 -191h-117zM242 912q0 48 32 84q38 41 94 42q54 -2 91 -42q32 -36 33 -84q-1 -55 -41 -93q-36 -32 -83 -32q-49 0 -85 32q-40 37 -41 93zM237 251h258l-127 329h-1zM295 912q0 -33 24 -55q21 -18 49 -18q31 0 53 24
q18 21 19 49q-1 28 -19 49q-22 24 -53 25q-33 -1 -55 -25q-18 -21 -18 -49z" />
    <glyph glyph-name="AE" unicode="&#xc6;" horiz-adv-x="1094" 
d="M451 710h584v-99h-412v-215h370v-100h-370v-237h417v-99h-529v191h-274l-113 -191h-118zM511 251v360l-214 -360h214z" />
    <glyph glyph-name="Ccedilla" unicode="&#xc7;" horiz-adv-x="740" 
d="M292 -181q42 -29 95 -31q24 0 45 13q15 11 16 28q-1 16 -13 26q-17 11 -36 10q-28 0 -52 -13l-23 19l34 73q-59 5 -113 27q-65 29 -110 83q-44 58 -65 127q-22 76 -21 155q-1 80 21 158q22 72 69 130q50 56 121 83q62 20 128 21q48 -1 94 -11q54 -14 100 -44
q81 -57 113 -150l-114 -18q-23 53 -69 87q-57 37 -124 36q-52 0 -100 -22q-44 -22 -73 -63q-32 -48 -44 -104q-11 -51 -10 -103q0 -51 10 -100q12 -56 44 -104q29 -42 74 -67q46 -23 99 -23q62 -2 116 29q57 37 83 101l112 -17q-17 -46 -44 -86q-28 -39 -66 -68
q-42 -28 -90 -43q-42 -11 -85 -15l-20 -45q18 7 38 7q39 2 71 -21q23 -21 24 -53q-1 -39 -34 -61q-20 -13 -42 -18q-27 -6 -53 -7q-69 -1 -126 36z" />
    <glyph glyph-name="Egrave" unicode="&#xc8;" horiz-adv-x="695" 
d="M636 710v-99h-442v-215h400v-100h-400v-237h447v-99h-559v750h554zM297 1007l181 -192h-104l-196 192h119z" />
    <glyph glyph-name="Eacute" unicode="&#xc9;" horiz-adv-x="695" 
d="M636 710v-99h-442v-215h400v-100h-400v-237h447v-99h-559v750h554zM528 1001l-197 -192h-103l180 192h120z" />
    <glyph glyph-name="Ecircumflex" unicode="&#xca;" horiz-adv-x="695" 
d="M636 710v-99h-442v-215h400v-100h-400v-237h447v-99h-559v750h554zM316 1007h93l187 -192h-115l-119 131l-118 -131h-115z" />
    <glyph glyph-name="Edieresis" unicode="&#xcb;" horiz-adv-x="695" 
d="M636 710v-99h-442v-215h400v-100h-400v-237h447v-99h-559v750h554zM552 939v-102h-131v102h131zM297 939v-102h-131v102h131z" />
    <glyph glyph-name="Igrave" unicode="&#xcc;" horiz-adv-x="278" 
d="M195 710v-750h-113v750h113zM61 1007l180 -192h-103l-196 192h119z" />
    <glyph glyph-name="Iacute" unicode="&#xcd;" horiz-adv-x="278" 
d="M195 710v-750h-113v750h113zM336 1001l-197 -192h-103l180 192h120z" />
    <glyph glyph-name="Icircumflex" unicode="&#xce;" horiz-adv-x="278" 
d="M195 710v-750h-113v750h113zM92 1007h93l187 -192h-114l-119 131l-119 -131h-114z" />
    <glyph glyph-name="Idieresis" unicode="&#xcf;" horiz-adv-x="278" 
d="M195 710v-750h-113v750h113zM330 939v-102h-131v102h131zM76 939v-102h-131v102h131z" />
    <glyph glyph-name="Eth" unicode="&#xd0;" horiz-adv-x="787" 
d="M1 391h120v319h275q68 0 133 -21q72 -26 123 -83q46 -56 68 -126q20 -71 21 -145q0 -80 -24 -156q-22 -70 -72 -124q-25 -25 -56 -45q-33 -18 -70 -31q-66 -18 -133 -19h-265v341h-120v90zM233 391h183v-90h-183v-242h149q55 -1 106 20q47 20 80 59q35 44 48 99
q11 49 12 99q-1 54 -15 106q-16 51 -49 92q-37 42 -88 61q-47 15 -96 16h-147v-220z" />
    <glyph glyph-name="Ntilde" unicode="&#xd1;" horiz-adv-x="794" 
d="M200 710l397 -573h2v573h112v-750h-118l-397 573h-1v-573h-113v750h118zM586 973q-2 -29 -12 -56q-9 -25 -26 -45q-35 -35 -85 -34q-23 0 -43 10q-27 12 -52 27q-14 8 -28 14q-13 6 -26 7q-19 -1 -31 -15q-14 -17 -16 -39h-75q2 54 37 96q31 35 78 36q23 -2 45 -11
q27 -12 53 -27q14 -8 29 -14q13 -6 27 -6q20 0 33 16q14 18 17 41h75z" />
    <glyph glyph-name="Ograve" unicode="&#xd2;" horiz-adv-x="792" 
d="M49 335q0 80 23 157q23 72 72 130q51 57 123 84q62 21 128 22q65 -1 128 -22q72 -27 123 -84q49 -58 72 -131q23 -76 24 -156q0 -81 -23 -158q-23 -72 -71 -130q-52 -56 -124 -83q-63 -21 -129 -22q-66 1 -128 22q-72 28 -123 84q-49 59 -72 131q-23 76 -23 156zM161 335
q0 -61 16 -119q17 -53 51 -97q65 -77 167 -77q44 0 85 15q50 20 84 61q35 44 50 97q16 59 17 120q-1 60 -18 118q-16 54 -51 97q-34 41 -83 62q-41 15 -84 16q-44 -1 -84 -16q-49 -20 -84 -61q-34 -44 -50 -97q-17 -59 -16 -119zM333 1007l181 -192h-104l-196 192h119z" />
    <glyph glyph-name="Oacute" unicode="&#xd3;" horiz-adv-x="792" 
d="M49 335q0 80 23 157q23 72 72 130q51 57 123 84q62 21 128 22q65 -1 128 -22q72 -27 123 -84q49 -58 72 -131q23 -76 24 -156q0 -81 -23 -158q-23 -72 -71 -130q-52 -56 -124 -83q-63 -21 -129 -22q-66 1 -128 22q-72 28 -123 84q-49 59 -72 131q-23 76 -23 156zM161 335
q0 -61 16 -119q17 -53 51 -97q65 -77 167 -77q44 0 85 15q50 20 84 61q35 44 50 97q16 59 17 120q-1 60 -18 118q-16 54 -51 97q-34 41 -83 62q-41 15 -84 16q-44 -1 -84 -16q-49 -20 -84 -61q-34 -44 -50 -97q-17 -59 -16 -119zM577 1001l-197 -192h-103l180 192h120z" />
    <glyph glyph-name="Ocircumflex" unicode="&#xd4;" horiz-adv-x="792" 
d="M49 335q0 80 23 157q23 72 72 130q51 57 123 84q62 21 128 22q65 -1 128 -22q72 -27 123 -84q49 -58 72 -131q23 -76 24 -156q0 -81 -23 -158q-23 -72 -71 -130q-52 -56 -124 -83q-63 -21 -129 -22q-66 1 -128 22q-72 28 -123 84q-49 59 -72 131q-23 76 -23 156zM161 335
q0 -61 16 -119q17 -53 51 -97q65 -77 167 -77q44 0 85 15q50 20 84 61q35 44 50 97q16 59 17 120q-1 60 -18 118q-16 54 -51 97q-34 41 -83 62q-41 15 -84 16q-44 -1 -84 -16q-49 -20 -84 -61q-34 -44 -50 -97q-17 -59 -16 -119zM349 1007h93l187 -192h-115l-119 131
l-118 -131h-115z" />
    <glyph glyph-name="Otilde" unicode="&#xd5;" horiz-adv-x="792" 
d="M49 335q0 80 23 157q23 72 72 130q51 57 123 84q62 21 128 22q65 -1 128 -22q72 -27 123 -84q49 -58 72 -131q23 -76 24 -156q0 -81 -23 -158q-23 -72 -71 -130q-52 -56 -124 -83q-63 -21 -129 -22q-66 1 -128 22q-72 28 -123 84q-49 59 -72 131q-23 76 -23 156zM161 335
q0 -61 16 -119q17 -53 51 -97q65 -77 167 -77q44 0 85 15q50 20 84 61q35 44 50 97q16 59 17 120q-1 60 -18 118q-16 54 -51 97q-34 41 -83 62q-41 15 -84 16q-44 -1 -84 -16q-49 -20 -84 -61q-34 -44 -50 -97q-17 -59 -16 -119zM588 973q-2 -29 -11 -56q-9 -25 -26 -45
q-35 -35 -85 -34q-17 0 -33 6q-27 10 -52 25q-19 12 -39 20q-13 6 -26 7q-19 -1 -31 -15q-14 -17 -16 -39h-74q1 28 11 55q9 24 26 44q31 32 77 33q23 -2 46 -11q27 -12 53 -27q14 -8 29 -14q12 -6 26 -6q20 0 33 16q14 18 18 41h74z" />
    <glyph glyph-name="Odieresis" unicode="&#xd6;" horiz-adv-x="792" 
d="M49 335q0 80 23 157q23 72 72 130q51 57 123 84q62 21 128 22q65 -1 128 -22q72 -27 123 -84q49 -58 72 -131q23 -76 24 -156q0 -81 -23 -158q-23 -72 -71 -130q-52 -56 -124 -83q-63 -21 -129 -22q-66 1 -128 22q-72 28 -123 84q-49 59 -72 131q-23 76 -23 156zM161 335
q0 -61 16 -119q17 -53 51 -97q65 -77 167 -77q44 0 85 15q50 20 84 61q35 44 50 97q16 59 17 120q-1 60 -18 118q-16 54 -51 97q-34 41 -83 62q-41 15 -84 16q-44 -1 -84 -16q-49 -20 -84 -61q-34 -44 -50 -97q-17 -59 -16 -119zM332 924v-102h-131v102h131zM587 924v-102
h-131v102h131z" />
    <glyph glyph-name="multiply" unicode="&#xd7;" horiz-adv-x="650" 
d="M139 592l185 -186l186 186l71 -70l-186 -186l186 -185l-71 -71l-186 186l-185 -186l-71 71l185 185l-185 186z" />
    <glyph glyph-name="Oslash" unicode="&#xd8;" horiz-adv-x="792" 
d="M148 44q-48 54 -72 122q-28 82 -27 169q0 80 23 157q23 72 72 130q51 57 123 84q62 21 128 22q98 1 184 -49l54 79h99l-89 -132q47 -54 71 -122q28 -82 28 -169q0 -81 -23 -158q-23 -72 -71 -130q-52 -56 -124 -83q-63 -21 -129 -22q-99 -1 -183 49l-53 -79h-100z
M631 335q0 57 -16 112q-12 44 -37 83l-306 -451q55 -39 123 -37q44 0 85 15q50 20 84 61q35 44 50 97q16 59 17 120zM161 335q-1 -58 14 -113q12 -45 38 -83l306 452q-57 37 -124 37q-44 -1 -84 -16q-49 -20 -84 -61q-34 -44 -50 -97q-17 -59 -16 -119z" />
    <glyph glyph-name="Ugrave" unicode="&#xd9;" horiz-adv-x="764" 
d="M191 710v-452q-1 -47 12 -93q12 -39 40 -70q28 -30 68 -43q34 -11 71 -10q35 0 68 9q39 12 68 41q27 30 40 70q14 47 14 96v452h112v-455q-1 -58 -15 -114q-17 -63 -59 -112q-42 -43 -99 -65q-63 -22 -129 -22q-68 0 -132 22q-57 22 -99 66q-42 49 -58 111
q-15 56 -14 114v455h112zM336 1007l181 -192h-104l-196 192h119z" />
    <glyph glyph-name="Uacute" unicode="&#xda;" horiz-adv-x="764" 
d="M191 710v-452q-1 -47 12 -93q12 -39 40 -70q28 -30 68 -43q34 -11 71 -10q35 0 68 9q39 12 68 41q27 30 40 70q14 47 14 96v452h112v-455q-1 -58 -15 -114q-17 -63 -59 -112q-42 -43 -99 -65q-63 -22 -129 -22q-68 0 -132 22q-57 22 -99 66q-42 49 -58 111
q-15 56 -14 114v455h112zM546 1001l-196 -192h-104l181 192h119z" />
    <glyph glyph-name="Ucircumflex" unicode="&#xdb;" horiz-adv-x="764" 
d="M191 710v-452q-1 -47 12 -93q12 -39 40 -70q28 -30 68 -43q34 -11 71 -10q35 0 68 9q39 12 68 41q27 30 40 70q14 47 14 96v452h112v-455q-1 -58 -15 -114q-17 -63 -59 -112q-42 -43 -99 -65q-63 -22 -129 -22q-68 0 -132 22q-57 22 -99 66q-42 49 -58 111
q-15 56 -14 114v455h112zM336 1007h93l187 -192h-115l-119 131l-118 -131h-115z" />
    <glyph glyph-name="Udieresis" unicode="&#xdc;" horiz-adv-x="764" 
d="M191 710v-452q-1 -47 12 -93q12 -39 40 -70q28 -30 68 -43q34 -11 71 -10q35 0 68 9q39 12 68 41q27 30 40 70q14 47 14 96v452h112v-455q-1 -58 -15 -114q-17 -63 -59 -112q-42 -43 -99 -65q-63 -22 -129 -22q-68 0 -132 22q-57 22 -99 66q-42 49 -58 111
q-15 56 -14 114v455h112zM580 924v-102h-131v102h131zM316 924v-102h-131v102h131z" />
    <glyph glyph-name="Yacute" unicode="&#xdd;" horiz-adv-x="679" 
d="M137 710l205 -336h2l198 336h131l-274 -453v-297h-113v297l-280 453h131zM525 1001l-197 -192h-103l180 192h120z" />
    <glyph glyph-name="Thorn" unicode="&#xde;" horiz-adv-x="676" 
d="M194 710v-132h169q51 -1 102 -12q53 -13 97 -46q37 -31 56 -76q17 -47 18 -96q-1 -52 -19 -101q-19 -45 -56 -77q-43 -33 -97 -46q-50 -12 -101 -11h-169v-153h-112v750h112zM194 213h154q31 -1 63 5q33 7 62 25q24 17 37 43q12 30 13 62q-1 30 -13 58q-14 26 -37 42
q-29 18 -62 24q-30 6 -61 6h-156v-265z" />
    <glyph glyph-name="germandbls" unicode="&#xdf;" horiz-adv-x="701" 
d="M82 494q-1 51 14 101q14 43 45 76q36 33 84 46q45 10 92 11q41 -1 81 -9q43 -10 80 -34q30 -23 47 -57q15 -35 16 -72q-1 -35 -21 -63q-24 -30 -55 -55q-16 -13 -28 -30t-12 -36q3 -25 24 -40q18 -12 37 -22q22 -12 45 -24q36 -18 68 -42q21 -17 37 -39q24 -36 25 -79
q-1 -34 -11 -66q-14 -37 -43 -64q-30 -27 -68 -40q-43 -13 -88 -14q-34 1 -66 9q-38 10 -68 34q-28 24 -42 59q-16 39 -16 82h100q-1 -37 22 -65q28 -30 70 -30q41 -1 72 26q25 29 25 69q-2 35 -25 62q-17 17 -36 30q-34 20 -69 36q-23 12 -45 25q-19 12 -36 28
q-23 24 -24 57q0 23 12 43q21 32 51 56q23 19 40 44q11 19 13 42q-1 37 -29 62q-37 28 -83 27q-29 0 -55 -10q-23 -11 -39 -30q-17 -24 -23 -52q-6 -26 -5 -52v-534h-113v534v0z" />
    <glyph glyph-name="agrave" unicode="&#xe0;" horiz-adv-x="610" 
d="M45 85q0 39 16 75q25 47 70 75q57 34 122 51q83 21 169 32v25q-1 41 -32 67q-20 15 -44 20t-47 6q-45 0 -84 -21q-37 -22 -53 -61l-102 14q14 37 38 68q25 30 58 51q69 39 148 38q41 -1 82 -9q43 -10 81 -35q31 -24 48 -59q16 -39 17 -80v-287q-1 -9 2 -17q3 -9 10 -13
q9 -4 19 -4q14 0 28 3v-70q-37 -11 -75 -12q-27 1 -52 13q-21 10 -30 30q-5 19 -7 40q-86 -81 -204 -83q-35 1 -69 10q-33 10 -60 30q-49 39 -49 103zM155 97q-1 -29 21 -47q13 -10 29 -15q21 -5 42 -4q46 0 89 18q46 20 86 54v125q-54 -7 -108 -17q-45 -10 -88 -28
q-34 -15 -57 -43q-14 -19 -14 -43zM245 817l180 -192h-103l-197 192h120z" />
    <glyph glyph-name="aacute" unicode="&#xe1;" horiz-adv-x="610" 
d="M45 85q0 39 16 75q25 47 70 75q57 34 122 51q83 21 169 32v25q-1 41 -32 67q-20 15 -44 20t-47 6q-45 0 -84 -21q-37 -22 -53 -61l-102 14q14 37 38 68q25 30 58 51q69 39 148 38q41 -1 82 -9q43 -10 81 -35q31 -24 48 -59q16 -39 17 -80v-287q-1 -9 2 -17q3 -9 10 -13
q9 -4 19 -4q14 0 28 3v-70q-37 -11 -75 -12q-27 1 -52 13q-21 10 -30 30q-5 19 -7 40q-86 -81 -204 -83q-35 1 -69 10q-33 10 -60 30q-49 39 -49 103zM155 97q-1 -29 21 -47q13 -10 29 -15q21 -5 42 -4q46 0 89 18q46 20 86 54v125q-54 -7 -108 -17q-45 -10 -88 -28
q-34 -15 -57 -43q-14 -19 -14 -43zM385 817h120l-197 -192h-103z" />
    <glyph glyph-name="acircumflex" unicode="&#xe2;" horiz-adv-x="610" 
d="M45 85q0 39 16 75q25 47 70 75q57 34 122 51q83 21 169 32v25q-1 41 -32 67q-20 15 -44 20t-47 6q-45 0 -84 -21q-37 -22 -53 -61l-102 14q14 37 38 68q25 30 58 51q69 39 148 38q41 -1 82 -9q43 -10 81 -35q31 -24 48 -59q16 -39 17 -80v-287q-1 -9 2 -17q3 -9 10 -13
q9 -4 19 -4q14 0 28 3v-70q-37 -11 -75 -12q-27 1 -52 13q-21 10 -30 30q-5 19 -7 40q-86 -81 -204 -83q-35 1 -69 10q-33 10 -60 30q-49 39 -49 103zM155 97q-1 -29 21 -47q13 -10 29 -15q21 -5 42 -4q46 0 89 18q46 20 86 54v125q-54 -7 -108 -17q-45 -10 -88 -28
q-34 -15 -57 -43q-14 -19 -14 -43zM257 817h93l187 -192h-114l-119 131l-119 -131h-114z" />
    <glyph glyph-name="atilde" unicode="&#xe3;" horiz-adv-x="610" 
d="M45 85q0 39 16 75q25 47 70 75q57 34 122 51q83 21 169 32v25q-1 41 -32 67q-20 15 -44 20t-47 6q-45 0 -84 -21q-37 -22 -53 -61l-102 14q14 37 38 68q25 30 58 51q69 39 148 38q41 -1 82 -9q43 -10 81 -35q31 -24 48 -59q16 -39 17 -80v-287q-1 -9 2 -17q3 -9 10 -13
q9 -4 19 -4q14 0 28 3v-70q-37 -11 -75 -12q-27 1 -52 13q-21 10 -30 30q-5 19 -7 40q-86 -81 -204 -83q-35 1 -69 10q-33 10 -60 30q-49 39 -49 103zM155 97q-1 -29 21 -47q13 -10 29 -15q21 -5 42 -4q46 0 89 18q46 20 86 54v125q-54 -7 -108 -17q-45 -10 -88 -28
q-34 -15 -57 -43q-14 -19 -14 -43zM505 760q-2 -29 -12 -56q-9 -25 -26 -45q-35 -35 -85 -34q-23 0 -43 10q-27 12 -52 27q-14 8 -28 14q-13 6 -26 7q-19 -1 -31 -15q-14 -17 -16 -39h-75q1 28 11 54q9 24 26 44q31 33 78 34q23 -2 45 -11q27 -12 53 -27q14 -8 29 -14
q13 -6 27 -6q20 0 33 16q14 18 17 41h75z" />
    <glyph glyph-name="adieresis" unicode="&#xe4;" horiz-adv-x="607" 
d="M45 85q0 39 16 75q25 47 70 75q57 34 122 51q83 21 169 32v25q-1 41 -32 67q-20 15 -44 20t-47 6q-45 0 -84 -21q-37 -22 -53 -61l-102 14q14 37 38 68q25 30 58 51q69 39 148 38q41 -1 82 -9q43 -10 81 -35q31 -24 48 -59q16 -39 17 -80v-287q-1 -9 2 -17q3 -9 10 -13
q9 -4 19 -4q14 0 28 3v-70q-37 -11 -75 -12q-27 1 -52 13q-21 10 -30 30q-5 19 -7 40q-86 -81 -204 -83q-35 1 -69 10q-33 10 -60 30q-49 39 -49 103zM155 97q-1 -29 21 -47q13 -10 29 -15q21 -5 42 -4q46 0 89 18q46 20 86 54v125q-54 -7 -108 -17q-45 -10 -88 -28
q-34 -15 -57 -43q-14 -19 -14 -43zM499 717v-102h-131v102h131zM244 717v-102h-131v102h131z" />
    <glyph glyph-name="aring" unicode="&#xe5;" horiz-adv-x="610" 
d="M45 85q0 39 16 75q25 47 70 75q57 34 122 51q83 21 169 32v25q-1 41 -32 67q-20 15 -44 20t-47 6q-45 0 -84 -21q-37 -22 -53 -61l-102 14q14 37 38 68q25 30 58 51q69 39 148 38q41 -1 82 -9q43 -10 81 -35q31 -24 48 -59q16 -39 17 -80v-287q-1 -9 2 -17q3 -9 10 -13
q9 -4 19 -4q14 0 28 3v-70q-37 -11 -75 -12q-27 1 -52 13q-21 10 -30 30q-5 19 -7 40q-86 -81 -204 -83q-35 1 -69 10q-33 10 -60 30q-49 39 -49 103zM178 738q0 48 32 84q38 41 94 42q54 -2 91 -42q32 -36 33 -84q-1 -55 -41 -93q-36 -32 -83 -32q-49 0 -85 32
q-40 37 -41 93zM155 97q-1 -29 21 -47q13 -10 29 -15q21 -5 42 -4q46 0 89 18q46 20 86 54v125q-54 -7 -108 -17q-45 -10 -88 -28q-34 -15 -57 -43q-14 -19 -14 -43zM231 738q0 -33 24 -55q21 -18 49 -18q31 0 53 24q18 21 19 49q-1 28 -19 49q-22 24 -53 25q-33 -1 -55 -25
q-18 -21 -18 -49z" />
    <glyph glyph-name="ae" unicode="&#xe6;" horiz-adv-x="957" 
d="M45 87q-1 40 16 77q12 22 29 39q20 18 43 30q27 13 55 22q33 9 67 15q84 11 169 11q0 61 -36 111q-35 43 -90 44q-46 0 -85 -21q-37 -23 -52 -63l-101 16q27 75 95 119q67 39 145 38q61 0 111 -34q47 -36 67 -91q23 58 77 92q51 32 112 33q48 -1 93 -15q52 -19 88 -60
q33 -41 48 -92q15 -56 16 -113v-48h-382q0 -36 11 -69q11 -30 33 -54q41 -43 102 -43q41 -1 77 20q35 24 56 63l100 -16q-17 -38 -41 -70q-23 -29 -53 -50q-34 -20 -72 -29q-34 -7 -68 -7q-69 0 -126 35q-50 33 -72 90q-22 -58 -74 -90q-30 -18 -65 -26q-40 -8 -80 -9
q-41 1 -80 10q-38 9 -71 29q-32 19 -50 50q-12 27 -12 56zM155 97q0 -13 6 -23q9 -15 24 -24q38 -20 82 -19q35 0 69 12q29 12 51 35q21 27 29 59q7 30 8 60q-58 -1 -116 -5q-44 -3 -87 -16q-17 -6 -32 -15q-12 -8 -22 -20q-12 -21 -12 -44zM802 281q-1 29 -9 58
q-8 28 -26 52q-40 45 -100 45q-61 0 -100 -45q-37 -49 -37 -110h272z" />
    <glyph glyph-name="ccedilla" unicode="&#xe7;" horiz-adv-x="596" 
d="M212 -182q42 -29 94 -31q25 0 46 13q14 11 15 28q-1 16 -13 26q-17 11 -36 10q-28 -1 -52 -13l-22 19l35 74q-99 10 -166 83q-34 42 -52 93q-17 55 -17 114q-1 62 19 121q20 54 59 96q41 40 95 59q46 14 95 15q39 -1 78 -10q43 -12 79 -37q60 -45 84 -116l-109 -14
q-41 81 -132 83q-66 0 -110 -47q-24 -29 -36 -64q-13 -42 -12 -86q-1 -44 11 -86q11 -35 35 -64q43 -48 109 -48q47 -1 87 25q34 26 52 66l107 -15q-24 -70 -80 -116q-62 -47 -140 -53l-23 -46q19 7 40 7q38 2 70 -21q23 -21 24 -53q-1 -39 -33 -61q-20 -13 -43 -18
q-26 -6 -52 -7q-36 0 -71 10q-30 9 -55 26z" />
    <glyph glyph-name="egrave" unicode="&#xe8;" horiz-adv-x="611" 
d="M46 233q0 59 18 117q18 53 55 96q39 43 93 63q46 15 95 16q48 -1 94 -15q53 -19 92 -60q36 -40 54 -92q17 -56 18 -113v-48h-410q-1 -36 11 -69q11 -31 34 -54q48 -43 113 -42q45 -1 86 20q40 22 63 62l100 -16q-33 -77 -103 -120q-37 -20 -77 -29q-35 -6 -70 -7
q-50 1 -97 15q-55 19 -95 59q-38 42 -56 96q-19 59 -18 121zM455 281q-1 62 -43 109q-43 44 -105 45q-63 -1 -107 -44q-43 -47 -45 -110h300zM233 817l180 -192h-103l-197 192h120z" />
    <glyph glyph-name="eacute" unicode="&#xe9;" horiz-adv-x="611" 
d="M46 233q0 59 18 117q18 53 55 96q39 43 93 63q46 15 95 16q48 -1 94 -15q53 -19 92 -60q36 -40 54 -92q17 -56 18 -113v-48h-410q-1 -36 11 -69q11 -31 34 -54q48 -43 113 -42q45 -1 86 20q40 22 63 62l100 -16q-33 -77 -103 -120q-37 -20 -77 -29q-35 -6 -70 -7
q-50 1 -97 15q-55 19 -95 59q-38 42 -56 96q-19 59 -18 121zM455 281q-1 62 -43 109q-43 44 -105 45q-63 -1 -107 -44q-43 -47 -45 -110h300zM391 817h119l-196 -192h-104z" />
    <glyph glyph-name="ecircumflex" unicode="&#xea;" horiz-adv-x="611" 
d="M46 233q0 59 18 117q18 53 55 96q39 43 93 63q46 15 95 16q48 -1 94 -15q53 -19 92 -60q36 -40 54 -92q17 -56 18 -113v-48h-410q-1 -36 11 -69q11 -31 34 -54q48 -43 113 -42q45 -1 86 20q40 22 63 62l100 -16q-33 -77 -103 -120q-37 -20 -77 -29q-35 -6 -70 -7
q-50 1 -97 15q-55 19 -95 59q-38 42 -56 96q-19 59 -18 121zM261 817h93l187 -192h-115l-119 131l-118 -131h-115zM455 281q-1 62 -43 109q-43 44 -105 45q-63 -1 -107 -44q-43 -47 -45 -110h300z" />
    <glyph glyph-name="edieresis" unicode="&#xeb;" horiz-adv-x="611" 
d="M46 233q0 59 18 117q18 53 55 96q39 43 93 63q46 15 95 16q48 -1 94 -15q53 -19 92 -60q36 -40 54 -92q17 -56 18 -113v-48h-410q-1 -36 11 -69q11 -31 34 -54q48 -43 113 -42q45 -1 86 20q40 22 63 62l100 -16q-33 -77 -103 -120q-37 -20 -77 -29q-35 -6 -70 -7
q-50 1 -97 15q-55 19 -95 59q-38 42 -56 96q-19 59 -18 121zM455 281q-1 62 -43 109q-43 44 -105 45q-63 -1 -107 -44q-43 -47 -45 -110h300zM243 717v-102h-131v102h131zM498 717v-102h-131v102h131z" />
    <glyph glyph-name="igrave" unicode="&#xec;" horiz-adv-x="240" 
d="M175 510v-550h-110v550h110zM39 817l181 -192h-104l-196 192h119z" />
    <glyph glyph-name="iacute" unicode="&#xed;" horiz-adv-x="240" 
d="M175 510v-550h-110v550h110zM193 817h120l-197 -192h-103z" />
    <glyph glyph-name="icircumflex" unicode="&#xee;" horiz-adv-x="240" 
d="M175 510v-550h-110v550h110zM73 817h93l187 -192h-114l-119 131l-119 -131h-114z" />
    <glyph glyph-name="idieresis" unicode="&#xef;" horiz-adv-x="240" 
d="M175 510v-550h-110v550h110zM313 717v-102h-131v102h131zM58 717v-102h-130v102h130z" />
    <glyph glyph-name="eth" unicode="&#xf0;" horiz-adv-x="623" 
d="M232 642q-75 25 -153 26l52 70q105 -8 199 -57l169 66l24 -60l-126 -50q87 -68 135 -167q46 -103 46 -216q-1 -56 -13 -110q-15 -61 -52 -111q-36 -43 -88 -67q-55 -24 -115 -24q-50 1 -97 15q-55 18 -95 58q-38 41 -56 94q-19 59 -18 121q0 57 18 112q19 52 54 94
q68 74 169 76q57 -1 105 -32q52 -34 79 -89h1q-13 62 -50 115q-43 60 -106 98l-206 -81l-25 61zM468 225q-1 38 -14 75q-13 36 -36 66q-24 29 -56 45q-25 11 -52 12q-66 -3 -107 -54q-24 -30 -35 -66q-12 -39 -12 -79t11 -78q11 -35 33 -64q43 -51 110 -51q68 0 112 51
q23 29 34 64q11 39 12 79z" />
    <glyph glyph-name="ntilde" unicode="&#xf1;" horiz-adv-x="613" 
d="M174 510v-71q38 41 89 66q42 19 89 20q35 -1 70 -9q39 -10 69 -36q28 -27 42 -64q14 -44 14 -90v-366h-110v345q-1 22 -6 45q-6 25 -22 46q-16 18 -38 29q-25 9 -52 10q-43 -1 -81 -19q-36 -19 -64 -48v-408h-109v550h109zM500 760q-2 -29 -11 -56q-9 -25 -26 -45
q-35 -35 -85 -34q-17 0 -33 6q-27 10 -52 25q-19 12 -39 20q-13 6 -26 7q-19 -1 -31 -15q-14 -17 -16 -39h-74q1 55 37 98q31 33 77 34q23 -2 46 -11q27 -12 53 -27q14 -8 29 -14q12 -6 26 -6q20 0 33 16q14 18 18 41h74z" />
    <glyph glyph-name="ograve" unicode="&#xf2;" horiz-adv-x="625" 
d="M44 235q0 59 18 116q19 54 57 96q41 42 96 62q47 15 97 16q50 -1 97 -16q55 -19 96 -61q38 -42 57 -96q18 -57 19 -117q0 -62 -20 -120q-18 -55 -57 -97q-40 -41 -95 -60q-48 -15 -97 -16q-50 1 -97 16q-55 20 -95 61q-38 43 -57 97q-19 58 -19 119zM154 235
q-1 -44 12 -87q11 -36 35 -64q44 -49 111 -48q66 -1 112 48q23 29 35 64q11 43 12 87q-1 43 -13 86q-12 35 -36 63q-45 47 -110 47q-75 -1 -120 -61q-22 -32 -31 -69q-7 -33 -7 -66zM232 817l181 -192h-104l-196 192h119z" />
    <glyph glyph-name="oacute" unicode="&#xf3;" horiz-adv-x="625" 
d="M44 235q0 59 18 116q19 54 57 96q41 42 96 62q47 15 97 16q50 -1 97 -16q55 -19 96 -61q38 -42 57 -96q18 -57 19 -117q0 -62 -20 -120q-18 -55 -57 -97q-40 -41 -95 -60q-48 -15 -97 -16q-50 1 -97 16q-55 20 -95 61q-38 43 -57 97q-19 58 -19 119zM154 235
q-1 -44 12 -87q11 -36 35 -64q44 -49 111 -48q66 -1 112 48q23 29 35 64q11 43 12 87q-1 43 -13 86q-12 35 -36 63q-45 47 -110 47q-75 -1 -120 -61q-22 -32 -31 -69q-7 -33 -7 -66zM396 817h119l-196 -192h-104z" />
    <glyph glyph-name="ocircumflex" unicode="&#xf4;" horiz-adv-x="625" 
d="M44 235q0 59 18 116q19 54 57 96q41 42 96 62q47 15 97 16q50 -1 97 -16q55 -19 96 -61q38 -42 57 -96q18 -57 19 -117q0 -62 -20 -120q-18 -55 -57 -97q-40 -41 -95 -60q-48 -15 -97 -16q-50 1 -97 16q-55 20 -95 61q-38 43 -57 97q-19 58 -19 119zM154 235
q-1 -44 12 -87q11 -36 35 -64q44 -49 111 -48q66 -1 112 48q23 29 35 64q11 43 12 87q-1 43 -13 86q-12 35 -36 63q-45 47 -110 47q-75 -1 -120 -61q-22 -32 -31 -69q-7 -33 -7 -66zM266 817h93l187 -192h-115l-119 131l-118 -131h-115z" />
    <glyph glyph-name="otilde" unicode="&#xf5;" horiz-adv-x="625" 
d="M44 235q0 59 18 116q19 54 57 96q41 42 96 62q47 15 97 16q50 -1 97 -16q55 -19 96 -61q38 -42 57 -96q18 -57 19 -117q0 -62 -20 -120q-18 -55 -57 -97q-40 -41 -95 -60q-48 -15 -97 -16q-50 1 -97 16q-55 20 -95 61q-38 43 -57 97q-19 58 -19 119zM154 235
q-1 -44 12 -87q11 -36 35 -64q44 -49 111 -48q66 -1 112 48q23 29 35 64q11 43 12 87q-1 43 -13 86q-12 35 -36 63q-45 47 -110 47q-75 -1 -120 -61q-22 -32 -31 -69q-7 -33 -7 -66zM510 760q-2 -29 -12 -56q-9 -25 -26 -45q-35 -35 -85 -34q-23 0 -43 10q-27 12 -52 27
q-14 8 -28 14q-13 6 -26 7q-19 -1 -31 -15q-14 -17 -16 -39h-75q1 28 11 55q9 24 26 44q32 32 78 33q23 -2 45 -11q27 -12 53 -27q14 -8 29 -14q13 -6 27 -6q20 0 33 16q14 18 17 41h75z" />
    <glyph glyph-name="odieresis" unicode="&#xf6;" horiz-adv-x="625" 
d="M44 235q0 59 18 116q19 54 57 96q41 42 96 62q47 15 97 16q50 -1 97 -16q55 -19 96 -61q38 -42 57 -96q18 -57 19 -117q0 -62 -20 -120q-18 -55 -57 -97q-40 -41 -95 -60q-48 -15 -97 -16q-50 1 -97 16q-55 20 -95 61q-38 43 -57 97q-19 58 -19 119zM154 235
q-1 -44 12 -87q11 -36 35 -64q44 -49 111 -48q66 -1 112 48q23 29 35 64q11 43 12 87q-1 43 -13 86q-12 35 -36 63q-45 47 -110 47q-75 -1 -120 -61q-22 -32 -31 -69q-7 -33 -7 -66zM249 717v-102h-131v102h131zM503 717v-102h-131v102h131z" />
    <glyph glyph-name="divide" unicode="&#xf7;" horiz-adv-x="650" 
d="M615 386v-95h-581v95h581zM385 614v-117h-121v117h121zM385 177v-116h-121v116h121z" />
    <glyph glyph-name="oslash" unicode="&#xf8;" horiz-adv-x="625" 
d="M122 17q-37 39 -56 90q-23 62 -22 128q0 59 18 116q19 54 57 96q41 42 96 62q47 15 97 16q64 0 124 -26l37 56h98l-68 -104q36 -40 55 -90q23 -61 23 -126q0 -62 -20 -120q-18 -55 -57 -97q-40 -41 -95 -60q-48 -15 -97 -16q-66 0 -124 27l-37 -57h-97zM471 235
q1 65 -29 123l-200 -306q33 -17 70 -16q66 -1 112 48q23 29 35 64q11 43 12 87zM154 235q-1 -37 7 -74q7 -27 21 -51l200 305q-34 15 -70 16q-75 -1 -120 -61q-22 -32 -31 -69q-7 -33 -7 -66z" />
    <glyph glyph-name="ugrave" unicode="&#xf9;" horiz-adv-x="613" 
d="M547 510v-550h-109v68q-39 -42 -91 -66q-42 -19 -88 -20q-46 0 -89 15q-36 14 -62 43q-26 31 -35 70q-9 35 -8 71v369h109v-348q-2 -52 30 -92q16 -19 40 -29q26 -10 54 -9q41 0 78 18q35 19 62 49v411h109zM248 817l180 -192h-103l-197 192h120z" />
    <glyph glyph-name="uacute" unicode="&#xfa;" horiz-adv-x="613" 
d="M547 510v-550h-109v68q-39 -42 -91 -66q-42 -19 -88 -20q-46 0 -89 15q-36 14 -62 43q-26 31 -35 70q-9 35 -8 71v369h109v-348q-2 -52 30 -92q16 -19 40 -29q26 -10 54 -9q41 0 78 18q35 19 62 49v411h109zM376 817h119l-196 -192h-104z" />
    <glyph glyph-name="ucircumflex" unicode="&#xfb;" horiz-adv-x="613" 
d="M174 510v-348q-2 -52 30 -92q16 -19 40 -29q26 -10 54 -9q41 0 78 18q35 19 62 49v411h109v-550h-109v68q-39 -42 -91 -66q-42 -19 -88 -20q-46 0 -89 15q-36 14 -62 43q-26 31 -35 70q-9 35 -8 71v369h109zM259 817h93l187 -192h-114l-119 131l-119 -131h-114z" />
    <glyph glyph-name="udieresis" unicode="&#xfc;" horiz-adv-x="613" 
d="M174 510v-348q-2 -52 30 -92q16 -19 40 -29q26 -10 54 -9q41 0 78 18q35 19 62 49v411h109v-550h-109v68q-39 -42 -91 -66q-42 -19 -88 -20q-46 0 -89 15q-36 14 -62 43q-26 31 -35 70q-9 35 -8 71v369h109zM499 717v-102h-131v102h131zM244 717v-102h-131v102h131z" />
    <glyph glyph-name="yacute" unicode="&#xfd;" horiz-adv-x="568" 
d="M123 510l165 -403l156 403h118l-274 -681q-16 -41 -54 -65q-35 -19 -74 -18q-38 0 -74 7v94q22 -4 46 -5q23 0 43 11q17 11 26 29l34 88l-230 540h118zM355 817h119l-196 -192h-104z" />
    <glyph glyph-name="thorn" unicode="&#xfe;" horiz-adv-x="636" 
d="M175 710v-260q35 34 79 55q45 20 94 21q45 -1 88 -14q50 -19 86 -59q35 -42 51 -96q16 -62 17 -126q-1 -64 -17 -126q-16 -52 -52 -94q-37 -38 -88 -55q-44 -13 -90 -14q-43 1 -82 16q-47 18 -86 50v-245h-110v947h110zM328 431q-41 -1 -77 -19q-43 -22 -76 -57v-255
q64 -61 153 -63q68 -1 111 51q21 30 31 65q9 38 10 78q-1 41 -10 81q-10 36 -31 66q-22 28 -54 42q-28 10 -57 11z" />
    <glyph glyph-name="ydieresis" unicode="&#xff;" horiz-adv-x="568" 
d="M123 510l165 -403l156 403h118l-274 -681q-16 -41 -54 -65q-35 -19 -74 -18q-38 0 -74 7v94q22 -4 46 -5q23 0 43 11q17 11 26 29l34 88l-230 540h118zM480 717v-102h-131v102h131zM225 717v-102h-131v102h131z" />
    <glyph glyph-name="amacron" unicode="&#x101;" horiz-adv-x="607" 
d="M45 85q0 39 16 75q25 47 70 75q57 34 122 51q83 21 169 32v25q-1 41 -32 67q-20 15 -44 20t-47 6q-45 0 -84 -21q-37 -22 -53 -61l-102 14q14 37 38 68q25 30 58 51q69 39 148 38q41 -1 82 -9q43 -10 81 -35q31 -24 48 -59q16 -39 17 -80v-287q-1 -9 2 -17q3 -9 10 -13
q9 -4 19 -4q14 0 28 3v-70q-37 -11 -75 -12q-27 1 -52 13q-21 10 -30 30q-5 19 -7 40q-86 -81 -204 -83q-35 1 -69 10q-33 10 -60 30q-49 39 -49 103zM155 97q-1 -29 21 -47q13 -10 29 -15q21 -5 42 -4q46 0 89 18q46 20 86 54v125q-54 -7 -108 -17q-45 -10 -88 -28
q-34 -15 -57 -43q-14 -19 -14 -43zM492 754v-79h-380v79h380z" />
    <glyph glyph-name="emacron" unicode="&#x113;" horiz-adv-x="611" 
d="M46 233q0 59 18 117q18 53 55 96q39 43 93 63q46 15 95 16q48 -1 94 -15q53 -19 92 -60q36 -40 54 -92q17 -56 18 -113v-48h-410q-1 -36 11 -69q11 -31 34 -54q48 -43 113 -42q45 -1 86 20q40 22 63 62l100 -16q-33 -77 -103 -120q-37 -20 -77 -29q-35 -6 -70 -7
q-50 1 -97 15q-55 19 -95 59q-38 42 -56 96q-19 59 -18 121zM455 281q-1 62 -43 109q-43 44 -105 45q-63 -1 -107 -44q-43 -47 -45 -110h300zM497 754v-79h-381v79h381z" />
    <glyph glyph-name="ecaron" unicode="&#x11b;" horiz-adv-x="611" 
d="M46 233q0 59 18 117q18 53 55 96q39 43 93 63q46 15 95 16q48 -1 94 -15q53 -19 92 -60q36 -40 54 -92q17 -56 18 -113v-48h-410q-1 -36 11 -69q11 -31 34 -54q48 -43 113 -42q45 -1 86 20q40 22 63 62l100 -16q-33 -77 -103 -120q-37 -20 -77 -29q-35 -6 -70 -7
q-50 1 -97 15q-55 19 -95 59q-38 42 -56 96q-19 59 -18 121zM187 812l119 -131l119 131h114l-187 -192h-93l-186 192h114zM455 281q-1 62 -43 109q-43 44 -105 45q-63 -1 -107 -44q-43 -47 -45 -110h300z" />
    <glyph glyph-name="hbar" unicode="&#x127;" horiz-adv-x="613" 
d="M175 710v-63h178v-80h-178v-128q38 41 89 66q42 19 89 20q45 0 88 -15q36 -15 62 -43q25 -32 35 -71q8 -35 9 -70v-366h-109v345q-1 22 -6 45q-6 25 -22 46q-16 18 -39 29q-25 9 -52 10q-43 -1 -81 -19q-36 -19 -63 -48v-408h-110v607h-70v80h70v63h110z" />
    <glyph glyph-name="imacron" unicode="&#x12b;" horiz-adv-x="240" 
d="M175 510v-550h-110v550h110zM283 754v-79h-326v79h326z" />
    <glyph glyph-name="nacute" unicode="&#x144;" horiz-adv-x="613" 
d="M174 510v-71q38 41 89 66q42 19 89 20q35 -1 70 -9q39 -10 69 -36q28 -27 42 -64q14 -44 14 -90v-367h-110v346q-1 22 -6 45q-6 25 -22 46q-16 18 -38 29q-25 9 -52 10q-43 -1 -81 -19q-36 -19 -64 -48v-409h-109v551h109zM374 817h119l-196 -192h-104z" />
    <glyph glyph-name="ncaron" unicode="&#x148;" horiz-adv-x="618" 
d="M177 510v-71q38 41 89 66q42 19 89 20q35 -1 70 -9q38 -10 69 -36q28 -27 42 -64q14 -44 14 -90v-367h-110v346q-1 22 -6 45q-6 25 -22 46q-16 18 -39 29q-25 9 -52 10q-43 -1 -80 -19q-36 -19 -64 -48v-409h-110v551h110zM192 812l118 -131l119 131h115l-187 -192h-93
l-187 192h115z" />
    <glyph glyph-name="eng" unicode="&#x14b;" horiz-adv-x="613" 
d="M174 510v-71q38 41 89 66q42 19 89 20q35 -1 70 -9q39 -10 69 -36q28 -27 42 -64q14 -44 14 -90v-444q0 -54 -36 -94q-22 -20 -49 -31q-32 -10 -65 -11q-55 1 -107 14v92q36 -11 75 -12q30 0 54 18q18 17 18 42v406q-1 22 -6 44q-6 26 -22 46q-16 19 -38 29q-26 9 -52 10
q-43 -1 -81 -19q-36 -19 -64 -48v-408h-109v550h109z" />
    <glyph glyph-name="omacron" unicode="&#x14d;" horiz-adv-x="625" 
d="M44 235q0 59 18 116q19 54 57 96q41 42 96 62q47 15 97 16q50 -1 97 -16q55 -19 96 -61q38 -42 57 -96q18 -57 19 -117q0 -62 -20 -120q-18 -55 -57 -97q-40 -41 -95 -60q-48 -15 -97 -16q-50 1 -97 16q-55 20 -95 61q-38 43 -57 97q-19 58 -19 119zM154 235
q-1 -44 12 -87q11 -36 35 -64q44 -49 111 -48q66 -1 112 48q23 29 35 64q11 43 12 87q-1 43 -13 86q-12 35 -36 63q-45 47 -110 47q-75 -1 -120 -61q-22 -32 -31 -69q-7 -33 -7 -66zM493 754v-79h-361v79h361z" />
    <glyph glyph-name="OE" unicode="&#x152;" horiz-adv-x="1183" 
d="M49 335q0 80 23 157q23 72 71 130q50 57 120 84q59 21 123 22q54 -1 105 -19q50 -18 89 -53v54h543v-99h-431v-215h389v-100h-389v-237h437v-99h-549v50q-41 -33 -91 -50t-103 -18q-63 1 -123 22q-70 28 -120 84q-48 59 -71 131q-23 76 -23 156zM161 335q0 -61 17 -119
q16 -53 50 -97q66 -77 168 -77q57 -1 108 23q49 25 76 74v398q-32 43 -78 68q-51 23 -106 23q-44 -1 -84 -16q-50 -20 -84 -61q-34 -44 -51 -97q-17 -59 -16 -119z" />
    <glyph glyph-name="oe" unicode="&#x153;" horiz-adv-x="1007" 
d="M44 235q0 59 18 116q19 53 56 96q40 42 94 62q46 15 95 16q63 0 119 -31q55 -36 84 -95q28 58 82 94q53 32 116 32q48 -1 94 -15q53 -19 91 -60q35 -41 52 -92q16 -56 17 -113v-48h-401q-1 -35 10 -67q11 -31 33 -55q45 -44 110 -43q45 -1 84 20q39 22 61 62l100 -16
q-17 -38 -43 -70q-25 -29 -58 -50q-35 -20 -75 -29q-35 -6 -69 -7q-64 -1 -120 29q-56 33 -85 93q-28 -60 -84 -93q-56 -30 -118 -29q-48 1 -93 16q-54 20 -94 61q-38 43 -57 97q-19 58 -19 119zM154 235q-1 -44 12 -86q11 -36 35 -65q42 -47 106 -47q28 0 56 8q32 13 55 38
q22 29 32 65q11 42 11 87q-1 43 -12 85q-11 35 -34 64q-44 46 -108 46q-35 -1 -66 -16q-30 -17 -50 -44q-22 -32 -30 -70q-7 -32 -7 -65zM852 281q-1 62 -40 109q-43 45 -104 45q-62 -1 -105 -44q-41 -48 -42 -110h291z" />
    <glyph glyph-name="Scaron" unicode="&#x160;" horiz-adv-x="683" 
d="M165 173q23 -59 73 -97q53 -36 118 -34q58 -2 106 31q19 14 32 36q10 18 11 40q-2 21 -12 40q-13 19 -31 34q-27 20 -58 35q-38 18 -77 33q-62 20 -120 48q-46 21 -85 53q-31 27 -48 64q-10 27 -10 57q1 37 14 73q21 45 59 76q42 32 92 49q54 16 112 17q90 1 168 -43
q81 -51 113 -142l-122 -17q-20 45 -60 72q-48 30 -104 30q-55 0 -101 -28q-21 -14 -34 -35q-12 -19 -12 -42q0 -18 7 -35q13 -21 34 -36q26 -18 55 -30q37 -15 75 -28q62 -22 122 -52q47 -24 87 -58q32 -28 50 -66q11 -28 12 -57q-1 -49 -22 -92q-23 -43 -62 -71
q-45 -31 -99 -45q-48 -10 -96 -11q-57 1 -112 16q-50 15 -92 44q-41 32 -70 76q-23 36 -37 77zM223 1002l118 -131l119 131h115l-187 -192h-93l-187 192h115z" />
    <glyph glyph-name="scaron" unicode="&#x161;" horiz-adv-x="545" 
d="M138 109q17 -41 54 -63q40 -21 86 -19q40 -1 75 20q32 20 35 58q-1 13 -7 26q-12 16 -29 27q-21 13 -44 22q-28 11 -56 21q-48 14 -93 34q-34 15 -63 40q-43 38 -43 95q0 34 17 64q20 31 50 51q37 22 78 32q37 7 75 8q68 1 129 -30q62 -37 91 -103l-104 -18
q-18 33 -50 51q-32 15 -66 15q-42 0 -77 -20q-31 -19 -33 -54q0 -14 8 -26t21 -21q19 -13 41 -22q27 -11 56 -19q49 -13 97 -32q37 -16 69 -40q47 -39 48 -100q-2 -70 -56 -114q-34 -25 -74 -37q-48 -12 -98 -13q-80 0 -149 38q-63 38 -91 107zM154 812l119 -131l119 131
h114l-187 -192h-93l-186 192h114z" />
    <glyph glyph-name="umacron" unicode="&#x16b;" horiz-adv-x="613" 
d="M547 510v-550h-109v68q-39 -42 -91 -66q-42 -19 -88 -20q-46 0 -89 15q-36 14 -62 43q-26 31 -35 70q-9 35 -8 71v369h109v-348q-2 -52 30 -92q16 -19 40 -29q26 -10 54 -9q41 0 78 18q35 19 62 49v411h109zM497 754v-79h-381v79h381z" />
    <glyph glyph-name="Ydieresis" unicode="&#x178;" horiz-adv-x="679" 
d="M137 710l205 -336h2l198 336h131l-274 -453v-297h-113v297l-280 453h131zM536 902v-102h-131v102h131zM281 902v-102h-131v102h131z" />
    <glyph glyph-name="Zcaron" unicode="&#x17d;" horiz-adv-x="679" 
d="M482 611h-419v99h571v-82l-444 -567h447v-101h-598v86zM230 1002l118 -131l119 131h115l-187 -192h-93l-187 192h115z" />
    <glyph glyph-name="zcaron" unicode="&#x17e;" horiz-adv-x="558" 
d="M363 421h-311v89h458v-72l-328 -389h340v-89h-486v71zM167 812l118 -131l119 131h115l-187 -192h-93l-187 192h115z" />
    <glyph glyph-name="florin" unicode="&#x192;" horiz-adv-x="650" 
d="M550 410v-89h-144v-437q-1 -23 -8 -46q-10 -24 -31 -42q-22 -16 -48 -23q-29 -6 -59 -7q-46 0 -87 16v94q28 -18 63 -18q25 -1 45 14q16 17 15 40v409h-111v89h111v201q0 24 8 47q11 26 33 44q23 17 51 24q30 7 62 8q49 0 97 -15v-92q-31 15 -65 15q-30 0 -55 -16
q-22 -18 -21 -45v-171h144z" />
    <glyph glyph-name="uni01CE" unicode="&#x1ce;" horiz-adv-x="607" 
d="M45 85q0 39 16 75q25 47 70 75q57 34 122 51q83 21 169 32v25q-1 41 -32 67q-20 15 -44 20t-47 6q-45 0 -84 -21q-37 -22 -53 -61l-102 14q14 37 38 68q25 30 58 51q69 39 148 38q41 -1 82 -9q43 -10 81 -35q31 -24 48 -59q16 -39 17 -80v-287q-1 -9 2 -17q3 -9 10 -13
q9 -4 19 -4q14 0 28 3v-70q-37 -11 -75 -12q-27 1 -52 13q-21 10 -30 30q-5 19 -7 40q-86 -81 -204 -83q-35 1 -69 10q-33 10 -60 30q-49 39 -49 103zM154 97q-1 -29 21 -47q13 -10 30 -15q20 -5 42 -4q46 0 89 18q46 20 85 54q0 62 1 125q-55 -7 -108 -17q-46 -10 -89 -28
q-33 -15 -57 -43q-14 -19 -14 -43zM185 812l119 -131l119 131h114l-187 -192h-93l-186 192h114z" />
    <glyph glyph-name="uni01D0" unicode="&#x1d0;" horiz-adv-x="240" 
d="M174 510v-550h-110v550h110zM1 812l119 -131l119 131h114l-187 -192h-93l-186 192h114z" />
    <glyph glyph-name="uni01D2" unicode="&#x1d2;" horiz-adv-x="625" 
d="M44 235q0 59 18 116q19 54 57 96q41 42 96 62q47 15 97 16q50 -1 97 -16q55 -19 96 -61q38 -42 57 -96q18 -57 19 -117q0 -62 -20 -120q-18 -55 -57 -97q-40 -41 -95 -60q-48 -15 -97 -16q-50 1 -97 16q-55 20 -95 61q-38 43 -57 97q-19 58 -19 119zM154 235
q-1 -44 12 -87q11 -36 35 -64q44 -49 111 -48q66 -1 112 48q23 29 35 64q11 43 12 87q-1 43 -13 86q-12 35 -36 63q-45 47 -110 47q-75 -1 -120 -61q-22 -32 -31 -69q-7 -33 -7 -66zM195 812l118 -131l119 131h115l-187 -192h-93l-187 192h115z" />
    <glyph glyph-name="uni01D4" unicode="&#x1d4;" horiz-adv-x="619" 
d="M553 510v-550h-109v68q-39 -42 -91 -66q-42 -19 -88 -20q-46 0 -89 15q-36 14 -62 43q-26 31 -35 70q-9 35 -8 71v369h109v-348q-2 -52 30 -92q16 -19 40 -29q26 -10 54 -9q41 0 78 18q35 19 62 49v411h109zM186 812l119 -131l119 131h114l-187 -192h-93l-186 192h114z
" />
    <glyph glyph-name="uni01D6" unicode="&#x1d6;" horiz-adv-x="613" 
d="M547 510v-550h-109v68q-39 -42 -91 -66q-42 -19 -88 -20q-46 0 -89 15q-36 14 -62 43q-26 31 -35 70q-9 35 -8 71v369h109v-348q-2 -52 30 -92q16 -19 40 -29q26 -10 54 -9q41 0 78 18q35 19 62 49v411h109zM493 879v-80h-381v80h381zM496 717v-102h-131v102h131z
M241 717v-102h-131v102h131z" />
    <glyph glyph-name="uni01D8" unicode="&#x1d8;" horiz-adv-x="613" 
d="M547 510v-550h-109v68q-39 -42 -91 -66q-42 -19 -88 -20q-46 0 -89 15q-36 14 -62 43q-26 31 -35 70q-9 35 -8 71v369h109v-348q-2 -52 30 -92q16 -19 40 -29q26 -10 54 -9q41 0 78 18q35 19 62 49v411h109zM364 955h119l-196 -192h-104zM499 717v-102h-131v102h131z
M244 717v-102h-131v102h131z" />
    <glyph glyph-name="uni01DA" unicode="&#x1da;" horiz-adv-x="618" 
d="M553 510v-550h-110v67q-39 -41 -91 -65q-42 -19 -87 -20q-46 0 -89 15q-36 14 -63 43q-25 30 -35 70q-9 35 -8 71v369h110v-348q-2 -52 29 -92q17 -19 41 -29q25 -10 53 -9q41 0 78 18q35 18 62 48v412h110zM189 955l119 -131l119 131h114l-187 -192h-93l-186 192h114z
M503 717v-102h-131v102h131zM249 717v-102h-131v102h131z" />
    <glyph glyph-name="uni01DC" unicode="&#x1dc;" horiz-adv-x="613" 
d="M547 510v-550h-109v68q-39 -42 -91 -66q-42 -19 -88 -20q-46 0 -89 15q-36 14 -62 43q-26 31 -35 70q-9 35 -8 71v369h109v-348q-2 -52 30 -92q16 -19 40 -29q26 -10 54 -9q41 0 78 18q35 19 62 49v411h109zM266 956l181 -193h-104l-196 193h119zM498 717v-102h-131v102
h131zM244 717v-102h-131v102h131z" />
    <glyph glyph-name="uni01F9" unicode="&#x1f9;" horiz-adv-x="613" 
d="M174 510v-71q38 41 89 66q42 19 89 20q35 -1 70 -9q39 -10 69 -36q28 -27 42 -64q14 -44 14 -90v-367h-110v346q-1 22 -6 45q-6 25 -22 46q-16 18 -38 29q-25 9 -52 10q-43 -1 -81 -19q-36 -19 -64 -48v-409h-109v551h109zM262 817l181 -192h-104l-196 192h119z" />
    <glyph glyph-name="uni0250" unicode="&#x250;" horiz-adv-x="610" 
d="M564 382q-1 -40 -17 -76q-25 -47 -70 -75q-57 -34 -122 -51q-83 -22 -168 -31v-25q0 -42 31 -68q20 -15 44 -20q24 -6 48 -5q44 -1 83 20q37 22 54 62l102 -14q-15 -38 -39 -69q-25 -30 -58 -50q-69 -39 -147 -38q-42 1 -83 9q-44 9 -81 35q-31 23 -48 58q-17 39 -16 81
v287q1 18 -13 29q-9 4 -19 4q-14 0 -27 -2v71q36 10 75 11q26 -1 51 -13q21 -10 31 -30q4 -16 5 -33q1 -4 2 -7q85 81 204 83q34 -1 68 -10q32 -10 60 -30q49 -40 50 -103zM454 370q0 28 -22 46q-13 10 -29 15q-21 5 -41 5q-47 -1 -90 -19q-46 -20 -85 -53v-125q53 5 107 16
q45 10 88 28q34 15 57 43q13 20 15 44z" />
    <glyph glyph-name="uni0251" unicode="&#x251;" horiz-adv-x="646" 
d="M45 234q-1 63 17 125q16 52 52 94q36 40 86 58q43 13 88 14q98 -2 170 -71v56h110v-444q-1 -9 2 -17q3 -9 10 -14q9 -4 19 -4q14 0 28 3v-80q-42 -11 -84 -12q-29 0 -52 16q-24 21 -29 53q-73 -66 -170 -69q-46 1 -90 15q-51 18 -88 57q-36 42 -52 95q-18 61 -17 125z
M307 37q86 2 151 61v262q-33 33 -75 53q-37 16 -76 17q-68 -1 -110 -52q-22 -30 -32 -65q-11 -39 -10 -79q0 -40 10 -79q10 -36 32 -65q42 -53 110 -53z" />
    <glyph glyph-name="uni0252" unicode="&#x252;" horiz-adv-x="643" 
d="M15 514q41 10 85 11q27 0 50 -16q24 -21 30 -53q73 66 171 69q45 -1 89 -15q51 -18 87 -58q36 -42 52 -95q17 -61 18 -124q-1 -64 -18 -126q-16 -52 -51 -94q-36 -39 -87 -57q-42 -13 -86 -14q-50 0 -95 19q-43 19 -76 52v-56h-110v444q1 18 -13 30q-9 4 -19 4
q-14 0 -27 -2v81zM335 430q-87 -4 -151 -62v-262q31 -34 73 -53q37 -16 78 -16q67 0 110 51q22 30 32 65q10 39 11 80q-1 39 -11 78q-10 35 -32 65q-42 53 -110 54z" />
    <glyph glyph-name="uni0253" unicode="&#x253;" horiz-adv-x="635" 
d="M65 587q0 27 7 53q9 28 31 49q23 19 52 27q34 9 70 9q61 -1 122 -13v-88q-45 11 -91 12q-33 0 -60 -18q-22 -18 -22 -46v-124q35 34 79 56q45 20 94 21q46 -1 90 -15q50 -18 86 -59q34 -43 49 -97q16 -61 17 -124q-1 -64 -17 -125q-16 -52 -51 -94q-37 -38 -88 -55
q-44 -13 -90 -14q-96 3 -169 65v-47h-109v627zM328 430q-41 -1 -78 -19q-43 -22 -76 -57v-254q65 -61 154 -63q67 -1 110 51q21 29 31 64q10 38 11 78q-1 39 -10 77q-9 36 -29 67q-43 56 -113 56z" />
    <glyph glyph-name="uni0254" unicode="&#x254;" horiz-adv-x="596" 
d="M554 233q0 -63 -20 -122q-20 -54 -59 -96q-41 -39 -95 -58q-46 -14 -94 -15q-40 1 -79 10q-43 12 -79 37q-60 44 -83 116l109 14q40 -82 132 -83q65 -1 109 46q24 29 36 64q12 42 13 87q-1 43 -12 85q-12 35 -35 64q-43 48 -108 49q-48 0 -88 -26q-34 -26 -51 -65
l-107 15q25 74 87 122q37 26 80 38q39 9 79 10q46 -1 91 -16q54 -19 94 -60q39 -42 59 -96q20 -59 21 -120z" />
    <glyph glyph-name="uni0255" unicode="&#x255;" horiz-adv-x="596" 
d="M44 234q-1 62 19 121q20 54 59 96q41 40 95 59q46 14 95 15q39 -1 78 -10q43 -12 79 -37q60 -45 84 -116l-109 -14q-41 81 -132 83q-66 0 -110 -47q-24 -29 -36 -64q-13 -42 -12 -86q-1 -49 18 -93q45 38 99 61q52 21 108 22q30 -1 60 -7q32 -9 58 -28q44 -33 47 -88
q-1 -29 -12 -55q-16 -33 -46 -55q-34 -24 -74 -36q-46 -12 -93 -13q-49 1 -95 16q-47 17 -85 50q-26 -31 -47 -65l-44 47q21 35 47 68q-52 80 -51 176zM354 145q-37 -1 -70 -16q-40 -18 -72 -46q48 -47 115 -47q24 -1 47 4q19 3 35 12q24 14 26 42q-1 22 -20 35
q-28 17 -61 16z" />
    <glyph glyph-name="uni0256" unicode="&#x256;" horiz-adv-x="652" 
d="M46 234q-1 63 17 125q16 52 51 94q36 40 87 58q42 13 87 14q48 0 93 -19q44 -20 78 -53v257h110v-810q-1 -25 17 -42q24 -18 55 -18q38 1 75 12v-92q-53 -13 -107 -14q-34 1 -66 11q-28 10 -49 31q-36 40 -35 94v126q-72 -63 -167 -66q-46 1 -90 15q-51 18 -87 57
q-36 42 -52 95q-18 61 -17 125zM308 37q86 3 151 62v261q-33 33 -75 53q-37 16 -76 17q-68 0 -111 -52q-22 -29 -32 -65q-11 -39 -10 -79q-1 -41 10 -79q10 -36 31 -66q43 -52 112 -52z" />
    <glyph glyph-name="uni0257" unicode="&#x257;" horiz-adv-x="652" 
d="M459 590q-1 54 35 94q22 20 49 30q32 10 66 11q54 -1 107 -13v-93q-37 12 -75 12q-29 0 -53 -16q-20 -18 -19 -44v-611h-110v48q-72 -63 -167 -66q-46 1 -90 15q-51 18 -87 57q-36 42 -52 95q-18 61 -17 125q-1 63 17 125q16 52 51 94q36 40 87 58q42 13 87 14
q48 0 93 -19q44 -20 78 -53v137zM308 37q86 3 151 62v261q-33 33 -75 53q-37 16 -76 17q-68 0 -111 -52q-22 -29 -32 -65q-11 -39 -10 -79q-1 -41 10 -79q10 -36 31 -66q43 -52 112 -52z" />
    <glyph glyph-name="uni0258" unicode="&#x258;" horiz-adv-x="611" 
d="M564 233q-1 -62 -19 -121q-18 -54 -56 -96q-40 -40 -95 -59q-47 -14 -96 -15q-36 1 -71 7q-41 9 -77 29q-70 43 -102 120l100 16q22 -40 62 -62q41 -21 87 -20q64 -1 112 42q22 23 34 54q12 33 12 69h-410v48q-1 58 17 113q18 52 54 92q39 41 92 60q46 14 95 15
q48 -1 94 -16q54 -20 93 -63q37 -43 55 -96q18 -58 19 -117zM455 281q-3 63 -46 110q-44 43 -106 44q-63 -1 -106 -45q-42 -47 -42 -109h300z" />
    <glyph glyph-name="uni0259" unicode="&#x259;" horiz-adv-x="611" 
d="M564 234q-1 -60 -19 -118q-18 -53 -55 -96q-39 -42 -93 -62q-46 -15 -94 -16q-49 1 -95 15q-53 19 -92 59q-36 40 -54 92q-18 55 -17 114v48h410q0 35 -12 68q-12 31 -34 54q-48 43 -112 43q-46 0 -87 -21q-40 -22 -62 -61l-100 16q32 76 102 120q37 20 77 29q35 6 71 7
q49 -1 96 -15q55 -19 95 -60q38 -42 56 -96q18 -59 19 -120zM155 186q0 -63 42 -110q43 -44 106 -44q62 0 106 43q43 47 46 111h-300z" />
    <glyph glyph-name="uni025A" unicode="&#x25a;" horiz-adv-x="834" 
d="M836 286q-4 -34 -16 -64q-11 -27 -32 -48q-38 -35 -89 -34q-44 0 -76 29q-35 36 -41 87l-18 -5v-17q-1 -60 -19 -118q-19 -54 -57 -96q-39 -42 -93 -62q-46 -15 -94 -16q-45 1 -89 13q-50 16 -91 49q-37 34 -57 79q-20 46 -20 96v36l409 94q-6 57 -49 94q-45 34 -102 33
q-48 0 -89 -23q-42 -24 -65 -65l-100 21q31 76 101 118q69 38 149 38q39 -1 78 -10q44 -12 82 -39q35 -26 59 -63q23 -39 35 -83l93 21q0 -33 5 -64q3 -22 13 -42q6 -12 18 -20q12 -7 27 -7q28 1 45 25q19 28 22 62zM153 151q1 -55 43 -89q45 -32 100 -31q32 0 63 11
q34 16 58 45q22 30 31 65q8 35 6 71z" />
    <glyph glyph-name="uni025B" unicode="&#x25b;" horiz-adv-x="614" 
d="M47 104q-1 56 39 96q40 34 94 42q-48 10 -83 43q-32 37 -31 86q0 28 12 53q17 33 48 54q35 23 76 33q46 11 93 12q46 0 91 -9q29 -6 57 -17q71 -33 114 -98l-105 -30q-26 30 -61 47q-41 18 -85 18q-51 0 -93 -26q-16 -11 -26 -27q-6 -12 -6 -24q-1 -20 11 -36
q15 -17 36 -24t44 -10q43 -6 86 -5h41v-80h-41q-46 0 -91 -6q-32 -4 -63 -17q-21 -10 -35 -30q-7 -14 -7 -30q0 -21 11 -39q13 -18 33 -28q47 -23 101 -21q50 -2 96 16q36 17 59 50l105 -35q-45 -64 -117 -95q-28 -11 -57 -17q-45 -8 -91 -8q-51 1 -101 11q-45 9 -85 32
q-36 20 -55 57q-14 29 -14 62z" />
    <glyph glyph-name="uni025C" unicode="&#x25c;" horiz-adv-x="614" 
d="M57 399q42 65 112 98q28 11 57 17q45 9 92 9q47 -1 92 -12q41 -10 76 -33q31 -21 49 -54q12 -25 13 -53q0 -49 -32 -86q-35 -33 -82 -43q53 -8 93 -42q40 -40 40 -96q-1 -33 -15 -62q-20 -37 -55 -57q-41 -23 -86 -32q-50 -10 -100 -11q-77 -1 -149 25q-71 31 -115 95
l105 35q22 -33 57 -50q46 -18 97 -16q53 -2 100 21q20 10 33 28q11 18 12 39q-1 16 -8 30q-14 20 -36 30q-30 13 -63 17q-44 6 -89 6h-41v80h41q42 -1 84 5q23 3 45 10q21 7 37 24q11 16 12 36q-1 12 -7 24q-10 16 -26 27q-43 26 -93 26q-45 0 -85 -18q-36 -17 -60 -47
l-105 30v0z" />
    <glyph glyph-name="uni025D" unicode="&#x25d;" horiz-adv-x="815" 
d="M816 363q-4 -34 -16 -65q-11 -26 -31 -47q-38 -36 -89 -35q-44 0 -75 31q-34 38 -42 90l-21 -6q-11 -36 -40 -58q-31 -23 -68 -31q53 -8 93 -42q40 -40 40 -96q-1 -33 -15 -62q-20 -37 -55 -57q-41 -23 -86 -32q-50 -10 -100 -11q-77 -1 -149 25q-71 31 -115 95l105 35
q22 -33 57 -50q46 -18 97 -16q53 -2 100 21q20 10 33 28q11 18 12 39q-1 16 -8 30q-14 20 -36 30q-30 13 -63 17q-44 6 -89 6h-41v80h41q42 -1 84 5q23 3 45 10q21 7 37 24q11 16 12 36q-1 12 -7 24q-10 16 -26 27q-43 26 -93 26q-45 0 -85 -18q-36 -17 -60 -47l-105 30
q42 65 112 98q28 11 57 17q45 9 92 9q78 1 148 -33q29 -15 51 -40q15 -18 24 -39l89 19q0 -33 4 -65q3 -22 11 -42q13 -28 44 -29q28 1 45 25q19 28 22 62z" />
    <glyph glyph-name="uni025E" unicode="&#x25e;" horiz-adv-x="636" 
d="M41 237q0 50 14 98q18 58 59 102q41 42 96 63q61 23 126 23q47 -1 93 -12q41 -10 77 -33q32 -21 50 -54q12 -25 13 -53q0 -49 -32 -85q-35 -33 -82 -44q52 -8 91 -43q39 -40 40 -97q-1 -33 -14 -62q-20 -36 -55 -56q-40 -22 -84 -32q-50 -10 -100 -10q-65 0 -125 23
q-55 21 -96 63q-40 46 -58 105q-13 51 -13 104zM151 237q-1 -44 11 -86q11 -37 36 -68q25 -29 62 -42q31 -10 65 -10q32 0 63 6q25 6 47 20q33 21 35 60q-1 40 -37 61q-24 13 -52 18q-37 6 -74 6h-36v80h36q33 -1 67 5q25 4 47 15q32 18 33 55q-1 12 -7 24q-10 16 -26 27
q-42 26 -92 26q-41 -1 -79 -16q-34 -15 -58 -43q-24 -32 -34 -70q-7 -34 -7 -68z" />
    <glyph glyph-name="uni025F" unicode="&#x25f;" horiz-adv-x="315" 
d="M106 342v168h110v-168h100v-94h-100v-361q-1 -25 -7 -50q-8 -28 -27 -50q-20 -20 -46 -30q-31 -10 -63 -11q-44 1 -86 9v91q28 -5 57 -6q26 0 45 17q18 21 17 49v342h-105v94h105z" />
    <glyph glyph-name="uni0260" unicode="&#x260;" horiz-adv-x="652" 
d="M46 236q0 51 12 101q14 56 49 102q31 41 78 64q46 21 98 22q50 0 97 -20q45 -21 79 -58v144q-1 54 35 94q22 20 49 30q32 10 66 11q54 -1 107 -13v-93q-37 12 -75 12q-29 0 -53 -16q-20 -18 -19 -44v-559q0 -58 -17 -114q-18 -50 -55 -87q-43 -38 -99 -53
q-52 -12 -105 -13q-42 1 -82 11q-37 10 -70 30q-60 41 -84 108l100 16q18 -35 53 -54q41 -21 87 -21q36 1 71 12q30 12 52 35q22 26 31 59q7 29 8 58v30q-35 -35 -80 -57q-44 -20 -92 -21q-52 1 -100 22q-47 22 -79 61q-35 45 -50 101q-12 49 -12 100zM308 47q40 0 77 18
q42 22 74 57v228q-32 37 -74 60q-37 19 -77 20q-64 -1 -107 -47q-23 -29 -35 -64q-12 -41 -11 -83q-1 -41 11 -80q11 -34 34 -62q43 -47 108 -47z" />
    <glyph glyph-name="uni0261" unicode="&#x261;" horiz-adv-x="636" 
d="M48 236q0 51 12 101q14 56 49 102q32 41 78 64q46 21 98 22q50 0 97 -20q45 -22 79 -58v63h110v-497q0 -58 -17 -114q-18 -50 -55 -87q-43 -38 -99 -53q-52 -12 -105 -13q-42 1 -82 11q-37 10 -70 30q-60 41 -84 108l100 16q18 -35 53 -54q41 -21 87 -21q36 1 71 12
q30 12 52 35q22 26 31 59q7 29 8 58v30q-35 -35 -80 -57q-44 -20 -92 -21q-52 1 -100 22q-47 22 -79 61q-35 45 -50 101q-12 49 -12 100zM310 47q40 0 77 18q42 22 74 57v228q-31 37 -74 60q-37 19 -77 20q-64 -1 -107 -47q-23 -29 -35 -64q-12 -41 -11 -83q-1 -41 11 -80
q11 -34 34 -62q43 -47 108 -47z" />
    <glyph glyph-name="uni0262" unicode="&#x262;" horiz-adv-x="611" 
d="M39 244q0 63 21 123q21 56 62 99q43 43 99 63q47 15 96 16q40 -1 79 -10q44 -11 82 -35q63 -42 88 -113l-109 -14q-18 34 -51 55q-41 23 -89 23q-70 -1 -116 -52q-26 -31 -39 -68q-14 -43 -13 -87q-1 -45 12 -87q12 -38 37 -68q46 -53 116 -53q54 -1 98 30q46 38 53 98
v24h-152v90q130 -1 261 0v-127q-14 -98 -92 -157q-41 -28 -88 -41q-40 -10 -80 -11q-49 2 -95 17q-56 21 -97 63q-41 44 -62 100q-21 59 -21 122z" />
    <glyph glyph-name="uni0263" unicode="&#x263;" horiz-adv-x="673" 
d="M336 -254q-27 1 -53 8q-30 9 -54 31q-23 23 -34 53q-12 36 -11 73q0 73 20 142q24 84 69 160q-58 81 -135 144q-63 52 -137 84l69 84q70 -32 131 -80q75 -62 135 -139q58 74 131 133q63 50 135 86l69 -84q-167 -78 -273 -228q43 -77 68 -161q20 -68 22 -141
q-1 -37 -12 -73q-12 -30 -34 -53q-24 -22 -54 -31q-26 -7 -52 -8zM383 -104q-3 108 -48 207q-45 -99 -46 -207q-1 -23 12 -42q13 -17 35 -18q21 1 34 18q13 19 13 42z" />
    <glyph glyph-name="uni0264" unicode="&#x264;" horiz-adv-x="673" 
d="M336 -58q-36 1 -69 12q-29 10 -51 33q-21 23 -30 54q-7 27 -7 56q1 123 80 219q-52 34 -109 58q-73 29 -149 49l44 102q85 -25 166 -62q66 -31 125 -74q58 43 124 74q81 38 167 62l44 -102q-77 -20 -151 -49q-57 -23 -108 -57q79 -96 81 -220q-1 -29 -8 -56
q-9 -31 -30 -54q-22 -22 -51 -33q-33 -11 -68 -12zM383 92q0 83 -48 151q-47 -69 -46 -151q-1 -24 12 -44q13 -17 35 -17q21 0 34 17q13 20 13 44z" />
    <glyph glyph-name="uni0265" unicode="&#x265;" horiz-adv-x="613" 
d="M437 -237v265q-39 -41 -91 -66q-42 -19 -87 -20q-46 0 -89 15q-36 14 -62 43q-26 31 -35 70q-9 35 -8 71v369h109v-348q0 -23 5 -46q6 -25 22 -46q16 -19 39 -29q25 -10 53 -9q41 0 79 18q36 18 65 48v412h110v-747h-110z" />
    <glyph glyph-name="uni0266" unicode="&#x266;" horiz-adv-x="613" 
d="M65 587q0 27 7 53q9 28 31 49q23 19 52 27q34 9 70 9q61 -1 122 -13v-88q-45 11 -91 12q-33 0 -60 -18q-22 -18 -22 -46v-134q38 42 89 67q43 19 90 20q45 0 88 -15q36 -15 62 -43q25 -32 35 -71q8 -35 9 -70v-366h-109v345q-1 22 -6 45q-6 25 -22 46q-16 19 -39 29
q-25 10 -52 11q-43 -1 -81 -20q-36 -19 -64 -49v-407h-109v627v0z" />
    <glyph glyph-name="uni0267" unicode="&#x267;" horiz-adv-x="613" 
d="M65 587q0 27 7 53q9 28 31 49q23 19 52 27q34 9 70 9q61 -1 122 -13v-88q-45 11 -91 12q-33 0 -60 -18q-22 -18 -22 -46v-134q38 42 89 67q43 19 90 20q35 -1 70 -9q38 -10 69 -36q27 -27 41 -64q14 -44 14 -90v-444q0 -54 -36 -94q-22 -20 -49 -31q-32 -10 -65 -11
q-55 1 -107 14v92q37 -11 76 -12q30 0 54 18q18 17 18 42v406q-1 22 -6 45q-7 25 -23 46q-16 18 -38 29q-25 9 -52 10q-38 -1 -72 -16q-42 -19 -73 -53v-407h-109v627v0z" />
    <glyph glyph-name="uni0268" unicode="&#x268;" horiz-adv-x="312" 
d="M101 342v168h110v-168h102v-94h-102v-288h-110v288h-102v94h102zM211 710v-117h-110v117h110z" />
    <glyph glyph-name="uni0269" unicode="&#x269;" horiz-adv-x="308" 
d="M175 510v-407q-2 -28 13 -52q14 -16 36 -15q38 0 65 30l23 -71q-28 -26 -63 -39q-34 -12 -69 -13q-47 0 -81 29q-17 17 -26 39q-9 27 -8 55v444h110z" />
    <glyph glyph-name="uni026A" unicode="&#x26a;" horiz-adv-x="240" 
d="M175 530v-570h-110v570h110z" />
    <glyph glyph-name="uni026B" unicode="&#x26b;" horiz-adv-x="478" 
d="M1 344q55 70 146 74q21 0 42 -6v298h110v-352q24 -13 53 -13q30 1 57 18q34 22 58 56l10 -95q-25 -35 -61 -55q-35 -19 -74 -19q-23 -1 -43 7v-297h-110v353q-26 9 -53 10q-38 -1 -70 -21q-34 -22 -56 -54l-9 96v0z" />
    <glyph glyph-name="uni026C" unicode="&#x26c;" horiz-adv-x="358" 
d="M-9 349q0 54 42 89q22 16 48 24q26 7 54 8h22v240h110v-403h104v-79h-104v-268h-110v268h-22q-28 0 -54 7q-26 8 -48 24q-42 35 -42 90zM76 349q-1 -21 16 -33q20 -11 43 -9h22v84h-22q-23 0 -43 -10q-17 -12 -16 -32z" />
    <glyph glyph-name="uni026D" unicode="&#x26d;" horiz-adv-x="257" 
d="M174 710v-810q-1 -25 17 -42q24 -18 55 -18q38 1 76 12v-92q-53 -13 -107 -14q-34 1 -66 11q-27 11 -49 31q-36 40 -35 94v828h109z" />
    <glyph glyph-name="uni026E" unicode="&#x26e;" horiz-adv-x="665" 
d="M174 710v-200h407v-99l-181 -196q45 -4 88 -21q40 -16 73 -45q56 -53 58 -131q-2 -49 -19 -95q-25 -58 -76 -97q-59 -41 -129 -59q-85 -21 -173 -21v100q61 1 121 14q50 12 94 38q37 23 58 61q13 28 15 59q-1 26 -13 49q-20 30 -51 48q-36 19 -75 27q-44 8 -88 9v74
l164 186h-273v-451h-109v750h109z" />
    <glyph glyph-name="uni026F" unicode="&#x26f;" horiz-adv-x="954" 
d="M779 -40v62q-38 -38 -87 -60q-42 -19 -87 -20q-29 0 -57 6q-25 6 -47 19q-41 27 -62 71h-1q-40 -45 -94 -72q-44 -22 -92 -24q-43 1 -83 14q-35 14 -60 42q-26 30 -36 69q-9 35 -8 71v372h110v-357q-2 -48 27 -85q34 -37 85 -36q36 1 67 20q38 22 67 57v401h110v-352
q0 -23 5 -45q7 -25 22 -45q32 -36 80 -36q36 0 69 17q41 21 72 56v405h110v-550h-110z" />
    <glyph glyph-name="uni0270" unicode="&#x270;" horiz-adv-x="954" 
d="M779 -237v259q-38 -38 -87 -60q-42 -19 -87 -20q-29 0 -57 6q-25 6 -47 19q-41 27 -62 71h-1q-40 -45 -94 -72q-44 -22 -92 -24q-43 1 -83 14q-35 14 -60 42q-26 30 -36 69q-9 35 -8 71v372h110v-357q-2 -48 27 -85q34 -37 85 -36q36 1 67 20q38 22 67 57v401h110v-352
q0 -23 5 -45q7 -25 22 -45q32 -36 80 -36q36 0 69 17q41 21 72 56v405h110v-747h-110z" />
    <glyph glyph-name="uni0271" unicode="&#x271;" horiz-adv-x="954" 
d="M174 510v-65q37 38 85 60q43 19 90 20q28 0 56 -6q25 -6 47 -19q41 -27 63 -71h1q39 45 93 73q44 21 93 23q42 -1 82 -14q35 -14 60 -42q26 -31 36 -70q8 -35 9 -70l-1 -447q0 -54 -36 -94q-22 -20 -49 -31q-32 -10 -65 -11q-55 1 -107 14v92q37 -11 76 -12q30 0 54 18
q18 17 18 42v414q1 47 -28 84q-34 37 -85 37q-36 -2 -67 -21q-38 -23 -67 -56v-398h-110v349q-1 22 -6 44q-7 25 -22 45q-31 36 -79 37q-38 -2 -71 -19q-40 -21 -70 -55v-401h-109v550h109z" />
    <glyph glyph-name="uni0272" unicode="&#x272;" horiz-adv-x="625" 
d="M-65 -148q37 -11 75 -12q28 -1 50 18q16 17 17 40v612h110v-71q38 41 89 66q42 19 89 20q35 -1 70 -9q38 -10 69 -36q28 -27 42 -64q14 -44 14 -90v-366h-110v345q-1 22 -6 45q-6 25 -22 46q-16 18 -39 29q-25 9 -52 10q-43 -1 -80 -19q-36 -19 -64 -48v-486
q-1 -31 -12 -59q-11 -26 -32 -45q-23 -18 -51 -25q-25 -6 -50 -7q-54 1 -107 14v92v0z" />
    <glyph glyph-name="uni0273" unicode="&#x273;" horiz-adv-x="630" 
d="M174 510v-71q38 41 89 66q42 19 89 20q35 -1 70 -9q39 -10 69 -36q28 -27 42 -64q14 -44 14 -90v-426q-1 -25 17 -42q24 -18 55 -18q38 1 76 12v-92q-53 -13 -107 -14q-34 1 -66 11q-28 10 -49 31q-36 40 -35 94v423q-1 22 -6 45q-7 25 -23 46q-16 19 -38 29
q-25 10 -52 11q-43 -1 -81 -20q-36 -19 -64 -48v-408h-109v550h109z" />
    <glyph glyph-name="uni0274" unicode="&#x274;" horiz-adv-x="666" 
d="M601 -41h-115l-310 407l-1 -1v-406h-110v571h116l309 -405l1 1v404h110v-571z" />
    <glyph glyph-name="uni0275" unicode="&#x275;" horiz-adv-x="625" 
d="M44 235q0 59 18 116q19 54 57 96q41 42 96 62q47 15 97 16q50 -1 97 -16q55 -19 96 -61q38 -42 57 -96q18 -57 19 -117q0 -62 -20 -120q-18 -55 -57 -97q-40 -41 -95 -60q-48 -15 -97 -16q-50 1 -97 16q-55 20 -95 61q-38 43 -57 97q-19 58 -19 119zM312 36q57 -1 101 37
q22 21 36 50q14 32 19 68h-312q4 -36 19 -68q13 -29 36 -50q43 -38 101 -37zM312 431q-56 0 -98 -36q-23 -21 -37 -49q-15 -32 -20 -66h310q-6 34 -20 66q-14 28 -36 49q-43 36 -99 36z" />
    <glyph glyph-name="uni0276" unicode="&#x276;" horiz-adv-x="926" 
d="M40 244q0 63 22 123q22 56 64 99q44 43 101 63q46 14 96 16q58 0 114 -15h441v-89h-335v-151h298v-90h-298v-151h341v-89h-446q-58 -17 -118 -18q-113 2 -193 80q-42 43 -65 100q-22 59 -22 122zM320 36q33 0 65 8q24 6 46 20v362q-51 26 -108 25q-39 -1 -73 -18
q-34 -18 -57 -49q-24 -33 -35 -73q-8 -33 -8 -67q0 -45 14 -87q13 -38 39 -69q47 -51 117 -52z" />
    <glyph glyph-name="uni0277" unicode="&#x277;" horiz-adv-x="952" 
d="M44 195q0 55 21 107q29 69 86 117q63 52 141 77q88 28 182 29q71 -2 141 -16q83 -20 154 -66q62 -43 102 -107q36 -65 37 -138q-1 -55 -16 -107q-15 -47 -47 -84q-35 -35 -83 -52q-42 -12 -85 -13q-70 -1 -126 39q-28 21 -47 51q-20 33 -30 71q-11 -37 -30 -70
q-18 -31 -46 -52q-29 -21 -64 -31q-31 -7 -62 -8q-43 1 -84 13q-46 16 -81 51q-32 36 -48 83q-16 51 -15 106zM798 191q-1 51 -27 96q-28 48 -73 80q-53 36 -115 52q-54 12 -109 13q-55 -1 -109 -12q-61 -14 -113 -48q-46 -32 -73 -79q-25 -49 -25 -103q0 -27 5 -54
q7 -29 24 -54q17 -22 41 -35q27 -12 57 -11q31 0 61 13q28 15 46 41q21 34 28 73t8 78v91h100v-91q-1 -40 7 -78q8 -39 30 -73q40 -54 107 -54q24 0 48 8q27 10 46 32q18 23 27 51q8 31 9 64z" />
    <glyph glyph-name="uni0278" unicode="&#x278;" horiz-adv-x="827" 
d="M44 234q0 47 14 93q18 56 60 98q44 43 101 66q67 25 139 31v188h110v-187q70 -6 136 -31q58 -22 103 -65q42 -42 61 -98q14 -47 15 -95q-1 -49 -15 -95q-19 -56 -60 -98q-45 -42 -103 -65q-66 -25 -137 -31v-182h-110v181q-71 6 -137 31q-57 22 -102 64q-42 42 -61 99
q-14 46 -14 96zM673 234q-1 33 -10 64q-12 39 -39 69q-29 29 -67 46q-43 18 -89 24v-408q47 6 90 24q38 18 66 48q49 57 49 133zM153 234q-1 -76 47 -133q28 -30 66 -47q44 -20 92 -25v409q-48 -7 -91 -25q-38 -17 -66 -47q-27 -30 -39 -68q-9 -32 -9 -64z" />
    <glyph glyph-name="uni0279" unicode="&#x279;" horiz-adv-x="383" 
d="M208 -41v105q-37 -55 -95 -86q-50 -28 -106 -32v90q57 2 107 29q56 30 94 82v363h109v-551h-109z" />
    <glyph glyph-name="uni027A" unicode="&#x27a;" horiz-adv-x="383" 
d="M208 -41v105q-37 -55 -95 -86q-50 -28 -106 -32v90q57 2 107 29q56 30 94 82v563h109v-751h-109z" />
    <glyph glyph-name="uni027B" unicode="&#x27b;" horiz-adv-x="401" 
d="M7 36q57 2 107 29q56 30 94 82v363h109v-610q-1 -25 18 -42q24 -18 55 -18q38 1 75 12v-92q-53 -13 -107 -14q-34 1 -66 11q-27 11 -49 31q-36 40 -35 94v182q-37 -55 -95 -86q-50 -28 -106 -32v90v0z" />
    <glyph glyph-name="uni027C" unicode="&#x27c;" horiz-adv-x="383" 
d="M174 510v-105q36 54 94 86q50 29 107 32v-90q-58 -3 -108 -30q-56 -30 -93 -81v-559h-109v747h109z" />
    <glyph glyph-name="uni027D" unicode="&#x27d;" horiz-adv-x="383" 
d="M174 510v-105q36 54 94 86q50 29 107 32v-90q-58 -3 -108 -30q-56 -30 -93 -81v-422q-1 -25 17 -42q24 -18 55 -18q38 1 76 12v-92q-53 -13 -107 -14q-34 1 -66 11q-27 11 -49 31q-36 40 -35 94v628h109z" />
    <glyph glyph-name="uni027E" unicode="&#x27e;" horiz-adv-x="359" 
d="M65 387q-1 27 7 53q11 28 33 49q25 19 54 27q35 9 71 9q61 -1 122 -13v-88q-45 11 -91 12q-34 0 -63 -18q-24 -17 -24 -46v-412h-109v427v0z" />
    <glyph glyph-name="uni027F" unicode="&#x27f;" horiz-adv-x="359" 
d="M7 512q60 12 122 13q35 0 70 -9q29 -8 54 -27q22 -21 33 -49q7 -26 8 -53v-624h-110v609q-1 29 -25 46q-28 18 -62 18q-46 0 -90 -12v88v0z" />
    <glyph glyph-name="uni0280" unicode="&#x280;" horiz-adv-x="607" 
d="M462 -40q-14 24 -21 49q-9 37 -11 75q-3 43 -37 71q-19 14 -42 20q-26 6 -52 7h-125v-222h-109v570h229q60 0 120 -11q44 -10 81 -34q22 -17 36 -41q18 -36 18 -76q-2 -53 -39 -91q-36 -36 -85 -49v-1q45 -10 77 -44q33 -39 37 -89q2 -40 13 -78q9 -29 26 -56h-116z
M434 357q0 40 -34 62q-23 13 -49 17q-35 5 -70 5h-107v-169h122q29 -1 58 6q24 5 45 18q33 22 35 61z" />
    <glyph glyph-name="uni0281" unicode="&#x281;" horiz-adv-x="607" 
d="M174 530v-223h125q26 -1 52 6q23 6 42 20q34 28 37 72q2 37 11 74q7 27 21 51h116q-17 -27 -26 -57q-11 -38 -13 -77q-4 -52 -37 -91q-32 -34 -77 -43v-1q56 -16 94 -59q29 -36 30 -81q0 -41 -18 -76q-19 -33 -53 -51q-30 -15 -64 -23q-60 -11 -120 -11h-229v570h109z
M174 49h107q35 -1 70 4q26 4 49 16q34 22 34 63q-2 39 -36 60q-22 13 -47 18q-29 6 -58 7h-119v-168z" />
    <glyph glyph-name="uni0282" unicode="&#x282;" horiz-adv-x="545" 
d="M138 109q17 -41 55 -63q40 -20 85 -19q40 -1 75 20q32 20 35 58q-1 13 -7 26q-12 16 -29 27q-21 13 -44 22q-28 11 -56 21q-48 14 -93 34q-34 15 -63 40q-43 38 -43 95q0 34 17 64q20 31 50 51q37 22 78 32q37 7 75 8q68 1 129 -30q62 -37 91 -103l-104 -18
q-18 33 -50 51q-32 15 -66 15q-42 0 -77 -20q-31 -19 -33 -54q0 -14 8 -26t21 -21q19 -13 41 -22q27 -11 56 -19q49 -13 97 -32q37 -16 69 -40q47 -39 48 -100q-1 -69 -53 -114q-32 -24 -71 -37q-47 -12 -94 -13q-48 0 -91 19q-34 15 -55 46v-107q0 -25 19 -42
q24 -18 56 -18q39 1 77 12v-92q-53 -13 -107 -14q-34 1 -66 11q-27 11 -49 31q-36 40 -35 94v205z" />
    <glyph glyph-name="uni0283" unicode="&#x283;" horiz-adv-x="288" 
d="M-60 -148q35 -11 70 -12q29 0 53 18q18 16 19 40v706q-1 56 43 91q24 16 53 23q31 7 63 8q54 0 107 -14v-93q-36 15 -75 16q-32 0 -58 -16q-23 -17 -23 -45v-705q-4 -50 -41 -86q-21 -18 -48 -27q-30 -9 -61 -10q-51 1 -102 14v92v0z" />
    <glyph glyph-name="uni0284" unicode="&#x284;" horiz-adv-x="283" 
d="M77 94v510q-1 56 43 91q24 16 53 23q31 7 63 8q54 0 107 -14v-93q-36 15 -75 16q-32 0 -58 -16q-23 -17 -23 -45v-480h107v-94h-107v-131q0 -50 -36 -86q-21 -18 -47 -27q-31 -9 -62 -10q-51 1 -102 14v92q35 -11 70 -12q28 -1 50 18q16 17 17 40v102h-107v94h107z" />
    <glyph glyph-name="uni0285" unicode="&#x285;" horiz-adv-x="300" 
d="M-60 513q58 12 117 13q35 0 69 -9q29 -8 52 -27q22 -21 31 -49q7 -26 8 -53v-488q-1 -24 15 -42q22 -19 52 -18q38 1 75 12v-92q-53 -13 -107 -14q-26 1 -51 7q-28 7 -51 25q-21 19 -32 45q-12 28 -11 59v491q-1 28 -22 46q-27 18 -60 18q-43 -1 -85 -12v88v0z" />
    <glyph glyph-name="uni0286" unicode="&#x286;" horiz-adv-x="501" 
d="M408 -246q-15 35 -33 66q-26 -38 -67 -57q-42 -17 -87 -17q-39 1 -76 10q-32 8 -58 27q-43 35 -43 91q2 57 45 92q26 20 57 28q28 6 58 7q47 0 91 -17v620q-1 56 42 91q25 16 53 23q31 7 63 8q54 0 107 -14v-93q-36 15 -75 16q-32 0 -58 -16q-23 -17 -23 -45v-642l-2 -34
q31 -45 53 -96zM223 -175q30 0 50 23q17 25 20 55q-33 19 -70 19q-28 1 -51 -14q-18 -13 -18 -35q1 -20 18 -33q23 -15 51 -15z" />
    <glyph glyph-name="uni0287" unicode="&#x287;" horiz-adv-x="360" 
d="M257 -40v-143h-109v143h-131v88h131v330q1 25 -17 41q-25 15 -54 14q-31 -1 -58 -13v89q52 15 107 16q28 0 55 -7q23 -7 43 -22q18 -17 26 -41q6 -22 7 -44v-363h95v-88h-95z" />
    <glyph glyph-name="uni0288" unicode="&#x288;" horiz-adv-x="360" 
d="M105 510v143h108v-143h131v-89h-131v-510q-2 -25 17 -40q11 -7 23 -10q16 -3 32 -3q30 2 58 13v-89q-53 -15 -108 -16q-28 0 -56 7q-23 6 -42 21q-18 17 -26 40q-7 22 -6 44v543h-96v89h96z" />
    <glyph glyph-name="uni0289" unicode="&#x289;" horiz-adv-x="684" 
d="M210 510v-168h263v168h110v-168h89v-94h-89v-288h-110v67q-39 -41 -91 -65q-42 -19 -87 -20q-46 0 -89 15q-36 14 -63 43q-25 30 -35 70q-9 35 -8 71v107h-89v94h89v168h110zM333 32q41 0 78 18q35 18 62 48v150h-263v-86q-2 -52 29 -92q17 -19 41 -29q25 -10 53 -9z" />
    <glyph glyph-name="uni028A" unicode="&#x28a;" horiz-adv-x="625" 
d="M54 426v94h214v-91q-53 -40 -86 -96q-30 -56 -29 -120q-1 -33 7 -65q9 -34 31 -63q22 -24 52 -37q33 -13 69 -12q35 0 68 12q30 13 52 37q22 29 31 63q7 32 8 65q0 64 -30 120q-34 56 -85 96v91h214v-94h-125q60 -35 96 -95q38 -65 40 -140q0 -57 -19 -110
q-19 -47 -57 -80q-42 -34 -95 -47q-49 -11 -98 -12q-50 1 -98 12q-54 13 -96 47q-38 33 -57 80q-19 53 -18 110q1 75 39 140q36 60 97 95h-125z" />
    <glyph glyph-name="uni028B" unicode="&#x28b;" horiz-adv-x="579" 
d="M142 510q-1 -104 8 -208q6 -76 28 -149q10 -27 24 -52q14 -19 32 -34q29 -20 64 -20q27 1 50 14q33 23 51 58q22 44 32 91q10 55 11 111q-1 20 -6 39q-8 21 -24 37q-17 14 -38 20q-23 6 -47 7v94q54 0 107 -12q39 -11 71 -37q20 -20 32 -46q15 -43 15 -88
q-1 -75 -17 -148q-16 -69 -53 -128q-18 -27 -41 -50q-23 -21 -52 -35q-47 -22 -98 -23q-60 1 -112 29q-30 20 -54 48q-24 32 -40 68q-17 41 -28 85q-12 49 -18 99q-13 114 -12 230h115z" />
    <glyph glyph-name="uni028C" unicode="&#x28c;" horiz-adv-x="566" 
d="M5 -40l210 550h135l209 -550h-120l-156 446h-2l-156 -446h-120z" />
    <glyph glyph-name="uni028D" unicode="&#x28d;" horiz-adv-x="879" 
d="M6 -40l179 550h138q57 -216 116 -430h1l119 430h139l174 -550h-120q-40 135 -76 272q-23 84 -46 167h-2l-117 -439h-144l-113 439h-1l-127 -439h-120z" />
    <glyph glyph-name="uni028E" unicode="&#x28e;" horiz-adv-x="568" 
d="M445 -40l-166 402l-156 -402h-117l274 680q15 41 52 65q35 19 75 18q37 0 75 -7v-94q-23 4 -46 5q-24 0 -44 -11q-18 -10 -25 -29l-35 -88l230 -539h-117z" />
    <glyph glyph-name="uni028F" unicode="&#x28f;" horiz-adv-x="566" 
d="M135 530l151 -259h1l143 259h130l-219 -360v-210h-110v210l-225 360h129z" />
    <glyph glyph-name="uni0290" unicode="&#x290;" horiz-adv-x="605" 
d="M363 421h-311v89h458v-72l-328 -389h340v-151q0 -24 18 -40q24 -18 54 -18q38 1 75 12v-92q-53 -13 -107 -14q-34 1 -66 11q-28 10 -49 31q-36 40 -35 94v78h-376v71z" />
    <glyph glyph-name="uni0291" unicode="&#x291;" horiz-adv-x="793" 
d="M363 421h-311v89h458v-72l-328 -389h178q20 42 49 80q25 32 59 56q60 39 132 39q29 -1 57 -7q31 -9 57 -28q44 -35 47 -90q-1 -58 -43 -97q-25 -20 -57 -30q-38 -11 -77 -12h-548v71zM581 145q-42 -1 -77 -23q-43 -30 -71 -73h150q25 -1 48 11q19 14 20 38q-2 21 -19 33
q-24 14 -51 14z" />
    <glyph glyph-name="uni0292" unicode="&#x292;" horiz-adv-x="588" 
d="M137 -69q11 -22 28 -42q14 -17 33 -29q38 -20 82 -19q60 0 106 38q22 22 35 50q11 31 12 64q-1 26 -12 51q-17 33 -46 55q-35 23 -76 35q-49 12 -98 12v74l174 191h-296v99h435v-99l-186 -196q47 -5 90 -24q40 -20 70 -52q54 -63 55 -146q-1 -50 -17 -97q-17 -47 -52 -83
q-41 -37 -94 -53q-49 -13 -100 -14q-40 1 -79 10q-43 11 -80 35q-32 24 -55 56q-23 33 -37 69z" />
    <glyph glyph-name="uni0293" unicode="&#x293;" horiz-adv-x="581" 
d="M29 -110q0 26 12 48q15 25 38 41q29 20 63 27q32 6 65 7q54 -1 105 -19q54 -20 100 -56q12 31 12 63q-1 37 -21 68q-23 33 -58 53q-40 23 -85 33q-39 8 -78 8v74l178 176h-296v99h436v-99l-192 -181q97 -11 165 -81q58 -64 60 -150q0 -76 -40 -141q24 -30 45 -64l-44 -47
q-22 32 -47 60q-39 -31 -87 -46q-50 -15 -102 -15q-48 1 -94 10q-40 9 -75 30q-31 19 -48 50q-12 25 -12 52zM250 -167q33 0 64 11q32 12 58 35q-34 26 -74 42q-33 13 -68 13q-36 1 -67 -14q-22 -11 -24 -35q0 -11 5 -20q10 -12 24 -18q39 -15 82 -14z" />
    <glyph glyph-name="uni0294" unicode="&#x294;" horiz-adv-x="594" 
d="M41 565q23 71 83 116q36 25 79 37q39 9 79 10q48 -1 94 -14q54 -17 95 -56q39 -40 59 -92q20 -58 20 -119q-1 -55 -17 -106q-16 -47 -47 -85q-61 -68 -150 -79v-217h-110v304h59q35 0 68 14q29 15 50 41q21 29 30 64q6 31 7 64q-1 32 -8 65q-8 35 -30 66q-21 26 -51 40
q-33 14 -69 15q-92 -1 -132 -83l-109 15v0z" />
    <glyph glyph-name="uni0295" unicode="&#x295;" horiz-adv-x="594" 
d="M41 447q-1 61 19 119q20 52 59 92q41 39 95 56q46 13 95 14q39 -1 78 -10q42 -12 79 -37q60 -45 84 -116l-109 -15q-41 82 -132 83q-37 -1 -70 -15q-30 -14 -51 -40q-22 -31 -30 -66q-7 -33 -7 -65q0 -33 6 -64q9 -35 30 -64q20 -26 50 -41q32 -14 68 -14h60v-304h-110
v217q-40 5 -77 21q-44 21 -76 58q-31 38 -46 85q-16 51 -15 106z" />
    <glyph glyph-name="uni0296" unicode="&#x296;" horiz-adv-x="594" 
d="M150 119q40 -82 132 -83q36 0 69 14q30 14 51 41q22 30 30 66q7 32 8 66q-1 32 -7 63q-9 35 -30 64q-21 26 -50 40q-33 14 -68 16h-59v304h110v-217q89 -12 150 -80q31 -38 47 -85q16 -51 17 -105q0 -62 -20 -120q-20 -53 -59 -92q-41 -38 -95 -55q-46 -13 -94 -14
q-40 1 -79 10q-43 12 -79 37q-60 44 -83 116z" />
    <glyph glyph-name="uni0297" unicode="&#x297;" horiz-adv-x="596" 
d="M44 437q-1 62 19 121q20 54 59 95q41 41 95 60q46 14 95 15q39 -1 78 -10q43 -12 79 -37q60 -45 84 -116l-109 -15q-41 82 -132 83q-66 0 -110 -47q-24 -29 -36 -64q-13 -42 -12 -85v-203q-1 -43 12 -83q11 -36 34 -65q43 -50 109 -50q47 -1 87 25q34 26 52 66l107 -15
q-26 -75 -88 -122q-37 -26 -80 -38q-39 -9 -78 -10q-47 1 -92 16q-54 19 -94 60q-39 42 -59 96q-20 58 -20 120v203z" />
    <glyph glyph-name="uni0298" unicode="&#x298;" horiz-adv-x="792" 
d="M161 335q0 -61 16 -119q17 -53 51 -97q65 -77 167 -77q44 0 85 15q50 20 84 61q35 44 50 97q16 59 17 120q-1 60 -18 118q-16 54 -51 97q-34 41 -83 62q-41 15 -84 16q-44 -1 -84 -16q-49 -20 -84 -61q-34 -44 -50 -97q-17 -59 -16 -119zM49 335q0 80 23 157
q23 72 72 130q51 57 123 84q62 21 128 22q65 -1 128 -22q72 -27 123 -84q49 -58 72 -131q23 -76 24 -156q0 -81 -23 -158q-23 -72 -71 -130q-52 -56 -124 -83q-63 -21 -129 -22q-66 1 -128 22q-72 28 -123 84q-49 59 -72 131q-23 76 -23 156zM309 335q0 38 28 64
q25 22 59 23q38 -1 64 -29q22 -25 23 -58q-1 -34 -23 -59q-26 -28 -64 -28q-39 0 -65 28q-22 25 -22 59z" />
    <glyph glyph-name="uni0299" unicode="&#x299;" horiz-adv-x="602" 
d="M290 530q60 0 119 -10q42 -8 79 -31q21 -16 35 -39q17 -35 17 -74q1 -45 -27 -80q-31 -33 -75 -44q48 -7 84 -40q36 -38 36 -90q-1 -33 -11 -64q-14 -36 -46 -58q-37 -22 -80 -30q-56 -10 -113 -10h-243v570h225zM175 49h133q34 -1 68 5q18 4 35 12q18 9 28 26q9 19 9 40
q0 39 -35 59q-24 12 -52 16q-30 4 -59 4h-127v-162zM175 290h116q33 -1 67 4q18 3 35 10q36 17 37 57q1 37 -30 58q-24 13 -51 17q-29 5 -59 5h-115v-151z" />
    <glyph glyph-name="uni029A" unicode="&#x29a;" horiz-adv-x="636" 
d="M46 100q-1 57 38 98q38 36 90 44q-48 10 -83 43q-32 37 -31 86q0 28 12 53q18 33 50 54q36 23 77 33q46 11 94 12q64 0 125 -23q55 -21 96 -63q41 -44 59 -102q14 -48 15 -98q-1 -53 -14 -104q-18 -59 -58 -105q-40 -42 -95 -63q-60 -23 -124 -23q-51 1 -100 10
q-45 9 -84 31q-35 20 -54 56q-13 28 -13 61zM162 116q0 -21 10 -38q13 -18 32 -28q24 -12 51 -16q24 -3 49 -3q33 0 64 10q37 14 62 42q25 31 36 68q11 42 12 86q-1 34 -8 68q-10 38 -34 70q-24 28 -58 43q-37 15 -77 16q-51 0 -94 -26q-16 -11 -26 -27q-6 -12 -6 -24
q0 -37 31 -55q23 -12 48 -15q34 -6 69 -5h36v-80h-36q-38 0 -76 -7q-21 -4 -40 -12q-21 -9 -34 -27q-12 -19 -11 -40z" />
    <glyph glyph-name="uni029B" unicode="&#x29b;" horiz-adv-x="662" 
d="M34 244q0 63 21 123q21 56 62 99q43 43 99 63q47 15 96 16q39 0 76 -15q37 -16 63 -47v121q-1 57 45 91q25 16 55 23q31 7 64 8q56 0 112 -14v-93q-17 7 -34 10q-23 5 -46 6q-33 0 -61 -16q-25 -16 -25 -45v-182l-109 -19q-18 34 -51 55q-41 23 -89 23q-70 -1 -116 -52
q-26 -31 -39 -68q-14 -43 -13 -87q-1 -45 12 -87q12 -38 37 -68q46 -53 116 -53q54 -1 98 30q46 38 53 98v24h-152v90q130 -1 261 0v-127q-14 -98 -92 -157q-41 -28 -88 -41q-40 -10 -80 -11q-49 2 -95 17q-56 21 -97 63q-41 44 -62 100q-21 59 -21 122z" />
    <glyph glyph-name="uni029C" unicode="&#x29c;" horiz-adv-x="652" 
d="M175 530v-235h301v235h110v-571h-110v246h-301v-246h-110v571h110z" />
    <glyph glyph-name="uni029D" unicode="&#x29d;" horiz-adv-x="520" 
d="M396 -246q-15 35 -33 66q-26 -38 -67 -57q-42 -17 -87 -17q-39 1 -76 10q-32 8 -58 27q-43 35 -43 91q2 57 45 92q26 20 57 28q28 6 58 7q47 0 91 -17v526h109v-578l-2 -34q31 -45 53 -96zM392 710v-117h-109v117h109zM211 -175q30 0 50 23q17 25 20 55q-33 19 -70 19
q-28 1 -51 -14q-18 -13 -18 -35q1 -20 18 -33q23 -15 51 -15z" />
    <glyph glyph-name="uni029E" unicode="&#x29e;" horiz-adv-x="573" 
d="M397 -237v432l-240 -235h-134l232 228l-250 322h129l194 -250l69 68v182h110v-747h-110z" />
    <glyph glyph-name="uni029F" unicode="&#x29f;" horiz-adv-x="553" 
d="M184 530v-476h339v-94h-448v570h109z" />
    <glyph glyph-name="uni02A0" unicode="&#x2a0;" horiz-adv-x="638" 
d="M457 590q-1 54 35 94q22 20 49 30q32 10 66 11q54 -1 107 -13v-93q-37 12 -75 12q-29 0 -53 -16q-20 -18 -19 -44v-808h-110v245q-72 -63 -167 -66q-46 1 -90 15q-51 18 -87 57q-36 42 -52 95q-18 61 -17 125q-1 63 17 125q16 52 51 94q36 40 87 58q42 13 87 14
q48 0 93 -19q44 -20 78 -53v137zM306 37q86 3 151 62v261q-33 33 -75 53q-37 16 -76 17q-68 0 -111 -52q-22 -29 -32 -65q-11 -39 -10 -79q-1 -41 10 -79q10 -36 31 -66q43 -52 112 -52z" />
    <glyph glyph-name="uni02A1" unicode="&#x2a1;" horiz-adv-x="594" 
d="M226 129v135h59q35 0 68 14q29 15 50 41q21 29 30 64q6 31 7 64q-1 32 -8 65q-8 35 -30 66q-21 26 -51 40q-33 14 -69 15q-92 -1 -132 -83l-109 15q23 71 83 116q36 25 79 37q39 9 79 10q48 -1 94 -14q54 -17 95 -56q39 -40 59 -92q20 -58 20 -119q-1 -54 -17 -105
q-16 -46 -47 -84q-61 -65 -150 -76v-53h108v-94h-108v-75h-110v75h-107v94h107z" />
    <glyph glyph-name="uni02A2" unicode="&#x2a2;" horiz-adv-x="594" 
d="M255 129v53q-40 5 -77 20q-43 20 -76 56q-31 38 -46 84q-16 51 -15 105q-1 61 19 119q20 52 59 92q41 39 95 56q46 13 95 14q39 -1 78 -10q42 -12 79 -37q60 -45 84 -116l-109 -15q-41 82 -132 83q-37 -1 -70 -15q-30 -14 -51 -40q-22 -31 -30 -66q-7 -33 -7 -65
q0 -33 6 -64q9 -35 30 -64q20 -26 50 -41q32 -14 68 -14h60v-135h105v-94h-105v-75h-110v75h-110v94h110z" />
    <glyph glyph-name="uni02A3" unicode="&#x2a3;" horiz-adv-x="1076" 
d="M46 234q-1 63 17 125q16 52 51 94q36 40 87 58q42 13 87 14q48 0 93 -19q44 -20 78 -53v257h110v-200h458v-72l-327 -389h339v-89h-580v48q-72 -63 -167 -66q-46 1 -90 15q-51 18 -87 57q-36 42 -52 95q-18 61 -17 125zM308 37q86 3 151 62v261q-33 33 -75 53
q-37 16 -76 17q-68 0 -111 -52q-22 -29 -32 -65q-11 -39 -10 -79q-1 -41 10 -79q10 -36 31 -66q43 -52 112 -52zM569 421v-371l312 371h-312z" />
    <glyph glyph-name="uni02A4" unicode="&#x2a4;" horiz-adv-x="1059" 
d="M46 234q-1 63 17 125q16 52 51 94q36 40 87 58q42 13 87 14q48 0 93 -19q44 -20 78 -53v257h110v-200h405v-99l-181 -196q45 -5 88 -21q41 -16 73 -45q57 -53 59 -131q-2 -48 -18 -93q-26 -58 -76 -97q-58 -42 -127 -60q-85 -22 -173 -22v100q60 1 119 13q50 12 93 38
q37 23 58 61q13 29 14 60q-1 26 -13 49q-19 30 -50 48q-36 19 -76 27q-44 9 -88 9v74l164 186h-271v-451h-110v48q-72 -63 -167 -66q-46 1 -90 15q-51 18 -87 57q-36 42 -52 95q-18 61 -17 125zM308 37q86 3 151 62v261q-33 33 -75 53q-37 16 -76 17q-68 0 -111 -52
q-22 -29 -32 -65q-11 -39 -10 -79q-1 -41 10 -79q10 -36 31 -66q43 -52 112 -52z" />
    <glyph glyph-name="uni02A5" unicode="&#x2a5;" horiz-adv-x="1311" 
d="M46 234q-1 63 17 125q16 52 51 94q36 40 87 58q42 13 87 14q48 0 93 -19q44 -20 78 -53v257h110v-200h458v-72l-327 -389h178q19 43 48 80q26 32 60 56q60 39 132 39q29 -1 57 -7q31 -9 57 -28q44 -35 46 -90q-1 -67 -54 -106q-29 -18 -63 -26q-30 -6 -60 -7h-642v48
q-72 -63 -167 -66q-46 1 -90 15q-51 18 -87 57q-36 42 -52 95q-18 61 -17 125zM308 37q86 3 151 62v261q-33 33 -75 53q-37 16 -76 17q-68 0 -111 -52q-22 -29 -32 -65q-11 -39 -10 -79q-1 -41 10 -79q10 -36 31 -66q43 -52 112 -52zM569 421v-371l312 371h-312zM1099 145
q-42 -1 -77 -23q-44 -29 -72 -73h151q25 -1 47 11q19 14 20 38q-1 20 -19 33q-23 14 -50 14z" />
    <glyph glyph-name="uni02A6" unicode="&#x2a6;" horiz-adv-x="781" 
d="M105 510v143h108v-143h195q49 15 101 15q68 1 129 -30q62 -37 91 -103l-104 -18q-18 33 -50 51q-32 15 -66 15q-42 0 -77 -20q-31 -19 -33 -54q0 -14 8 -26t21 -21q19 -13 41 -22q27 -11 56 -19q49 -13 97 -32q37 -16 69 -40q47 -39 48 -100q-2 -70 -56 -114
q-34 -25 -74 -37q-48 -12 -98 -13h-256q-35 0 -68 9q-27 7 -48 25q-20 17 -28 42q-7 22 -6 45v358h-96v89h96zM289 370q-1 26 10 51h-86v-325q-1 -14 2 -27t12 -23q10 -9 23 -12q17 -4 35 -3h234q38 -1 72 18q31 19 33 56q-1 13 -7 25q-12 16 -29 27q-47 28 -100 44
q-48 14 -93 34q-34 15 -63 40q-43 38 -43 95z" />
    <glyph glyph-name="uni02A7" unicode="&#x2a7;" horiz-adv-x="551" 
d="M212 -148q34 -11 71 -12q25 0 45 14q21 17 22 44v62q-54 -17 -110 -18q-29 1 -56 8q-25 7 -45 23q-19 17 -28 40q-7 22 -6 45v363h-96v89h96v143h108v-143h137v94q-1 56 42 91q25 16 53 23q31 7 63 8q54 0 107 -14v-93q-36 15 -75 16q-32 0 -58 -16q-23 -17 -23 -45v-705
q-3 -57 -48 -94q-44 -30 -97 -29q-52 1 -102 14v92zM286 34q33 -1 64 14v373h-137v-330q-1 -26 17 -43q11 -8 24 -11q16 -4 32 -3z" />
    <glyph glyph-name="uni02A8" unicode="&#x2a8;" horiz-adv-x="908" 
d="M463 234q-1 -51 20 -96q45 38 99 64q52 24 109 25q30 -1 60 -8q32 -8 58 -27q44 -35 47 -90q-1 -28 -12 -54q-16 -34 -46 -56q-34 -25 -74 -37q-46 -12 -93 -13q-53 0 -102 18q-52 20 -91 58q-46 -34 -98 -56q-48 -19 -100 -20q-29 0 -57 7q-25 7 -45 23q-19 17 -27 40
q-7 22 -6 46v363h-96v89h96v143h108v-143h128v-89h-128v-330q-2 -26 17 -43q10 -8 23 -11q16 -4 32 -3q60 2 111 37q-44 75 -43 163q-1 62 19 121q20 54 59 96q41 40 95 59q46 14 95 15q39 -1 78 -10q43 -12 79 -37q60 -45 84 -116l-109 -14q-41 81 -132 83q-66 0 -110 -47
q-25 -29 -36 -64q-13 -42 -12 -86zM666 148q-37 -1 -69 -17q-40 -20 -75 -48q49 -47 117 -47q24 -1 47 4q19 4 35 13q24 15 26 43q-2 26 -26 39q-26 13 -55 13z" />
    <glyph glyph-name="uni02A9" unicode="&#x2a9;" horiz-adv-x="1005" 
d="M146 510v94q-1 56 42 91q25 16 53 23q31 7 63 8q57 -1 112 -16v-92q-39 16 -80 17q-32 0 -58 -16q-23 -17 -23 -45v-64h313v-71q38 41 89 66q42 19 89 20q35 -1 70 -9q39 -10 69 -36q28 -27 42 -64q14 -44 14 -90v-444q0 -54 -36 -94q-22 -20 -49 -31q-32 -10 -65 -11
q-55 1 -107 14v92q36 -11 75 -12q30 0 54 18q18 17 18 42v406q-1 22 -6 44q-6 26 -22 46q-16 19 -38 29q-26 9 -52 10q-43 -1 -81 -19q-36 -19 -64 -48v-408h-109v461h-204v-460h-109v460h-112v89h112z" />
    <glyph glyph-name="uni02AA" unicode="&#x2aa;" horiz-adv-x="705" 
d="M175 710v-573q109 -107 263 -110q40 -1 75 20q32 20 35 58q-1 13 -7 26q-12 16 -29 27q-21 13 -44 22q-28 11 -56 21q-48 14 -93 34q-34 15 -63 40q-43 38 -43 95q0 34 17 64q20 31 50 51q37 22 78 32q37 7 75 8q68 1 129 -30q62 -37 91 -103l-104 -18q-18 33 -50 51
q-32 15 -66 15q-42 0 -77 -20q-31 -19 -33 -54q0 -14 8 -26t21 -21q19 -13 41 -22q27 -11 56 -19q49 -13 97 -32q37 -16 69 -40q47 -39 48 -100q-2 -70 -56 -114q-34 -25 -74 -37q-48 -12 -98 -13q-146 4 -260 93v-75h-110v750h110z" />
    <glyph glyph-name="uni02AB" unicode="&#x2ab;" horiz-adv-x="682" 
d="M175 710v-200h458v-72l-327 -389h339v-89h-580v750h110zM175 421v-371l312 371h-312z" />
    <glyph glyph-name="uni02AC" unicode="&#x2ac;" horiz-adv-x="775" 
d="M128 710l99 -264h1l88 264h139l91 -264h1l99 264h121l-153 -356h-136l-92 256h-1l-89 -256h-137l-152 356h121zM128 315l99 -264h1l88 264h139l91 -264h1l99 264h121l-153 -355h-136l-92 255h-1l-89 -255h-137l-152 355h121z" />
    <glyph glyph-name="uni02AD" unicode="&#x2ad;" horiz-adv-x="652" 
d="M586 305v-346h-110v257h-301v-257h-110v346h521zM586 710v-344h-110v255h-301v-255h-110v344h521z" />
    <glyph glyph-name="uni02AE" unicode="&#x2ae;" horiz-adv-x="630" 
d="M565 510v-747h-110v265q-39 -41 -91 -66q-42 -19 -87 -20q-36 1 -71 9q-39 10 -69 36q-28 26 -42 63q-14 44 -13 91v230q0 25 -18 42q-24 18 -54 18q-38 -1 -75 -12v93q53 12 107 13q33 -1 65 -11q27 -10 49 -30q36 -40 36 -94v-228q0 -23 5 -46q6 -25 22 -46
q16 -19 39 -29q25 -11 53 -10q42 0 79 19q36 19 65 49v411h110z" />
    <glyph glyph-name="uni02AF" unicode="&#x2af;" horiz-adv-x="636" 
d="M565 510v-610q-1 -25 17 -42q24 -18 55 -18q38 1 75 12v-92q-53 -13 -107 -14q-34 1 -66 11q-28 10 -49 31q-36 40 -35 94v146q-39 -41 -91 -66q-42 -19 -87 -20q-36 1 -71 9q-39 10 -69 36q-28 26 -42 63q-14 44 -13 91v230q0 25 -18 42q-24 18 -54 18q-38 -1 -75 -12
v93q53 12 107 13q33 -1 65 -11q27 -10 49 -30q36 -40 36 -94v-228q0 -23 5 -46q6 -25 22 -46q16 -19 39 -29q25 -11 53 -10q42 0 79 19q36 19 65 49v411h110z" />
    <glyph glyph-name="circumflex" unicode="&#x2c6;" horiz-adv-x="628" 
d="M80 568l187 192h93l187 -192h-115l-119 131l-118 -131h-115z" />
    <glyph glyph-name="caron" unicode="&#x2c7;" horiz-adv-x="628" 
d="M195 760l118 -131l119 131h115l-187 -192h-93l-187 192h115z" />
    <glyph glyph-name="uni02C9" unicode="&#x2c9;" horiz-adv-x="522" 
d="M441 719v-79h-361v79h361z" />
    <glyph glyph-name="uni02CA" unicode="&#x2ca;" horiz-adv-x="461" 
d="M261 760h119l-196 -192h-104z" />
    <glyph glyph-name="uni02CB" unicode="&#x2cb;" horiz-adv-x="461" 
d="M200 760l180 -192h-103l-197 192h120z" />
    <glyph glyph-name="dotaccent" unicode="&#x2d9;" horiz-adv-x="307" 
d="M226 727v-138h-146v138h146z" />
    <glyph glyph-name="tilde" unicode="&#x2dc;" 
d="M696 721q-2 -29 -11 -56q-9 -24 -26 -44q-35 -35 -85 -34q-17 0 -33 6q-27 10 -52 25q-19 12 -39 20q-13 6 -26 7q-19 -1 -31 -15q-14 -17 -16 -39h-74q1 29 11 57q9 24 26 43q31 32 77 32q23 -2 46 -11q27 -12 53 -27q14 -8 29 -14q12 -6 26 -6q20 0 33 16q14 17 18 40
h74z" />
    <glyph glyph-name="Alpha" unicode="&#x391;" horiz-adv-x="731" 
d="M306 710h123l295 -750h-117l-74 191h-335l-75 -191h-117zM237 251h258l-127 329h-1z" />
    <glyph glyph-name="Beta" unicode="&#x392;" horiz-adv-x="694" 
d="M354 710q51 -1 103 -9q51 -9 96 -37q35 -24 53 -63q17 -41 17 -86q-1 -56 -32 -102q-36 -49 -94 -69q29 -7 56 -19q31 -16 54 -41q42 -49 42 -113q-1 -40 -12 -79q-14 -44 -49 -75q-38 -30 -87 -42q-61 -15 -123 -15h-296v750h272zM195 59h159q42 -1 84 8q31 7 58 25
q41 32 41 85q-1 24 -10 46q-12 26 -37 41q-28 16 -60 22q-39 6 -77 6h-158v-233zM195 391h149q35 -1 69 8q30 8 55 25q41 28 43 78q0 48 -38 78q-24 17 -54 23q-38 8 -77 8h-147v-220z" />
    <glyph glyph-name="Gamma" unicode="&#x393;" horiz-adv-x="610" 
d="M590 710v-99h-396v-651h-112v750h508z" />
    <glyph glyph-name="uni0394" unicode="&#x394;" horiz-adv-x="715" 
d="M301 710h118l280 -680v-70h-684v70zM575 59l-215 519h-2l-218 -519h435z" />
    <glyph glyph-name="Epsilon" unicode="&#x395;" horiz-adv-x="695" 
d="M636 710v-99h-442v-215h400v-100h-400v-237h447v-99h-559v750h554z" />
    <glyph glyph-name="Zeta" unicode="&#x396;" horiz-adv-x="679" 
d="M483 611h-420v99h571v-82l-445 -567h448v-101h-598v86z" />
    <glyph glyph-name="Eta" unicode="&#x397;" horiz-adv-x="785" 
d="M194 710v-314h396v314h112v-750h-112v336h-396v-336h-112v750h112z" />
    <glyph glyph-name="Theta" unicode="&#x398;" horiz-adv-x="792" 
d="M49 335q0 80 23 157q23 72 72 130q51 57 123 84q62 21 128 22q65 -1 128 -22q72 -27 123 -84q49 -58 72 -131q23 -76 24 -156q0 -81 -23 -158q-23 -72 -71 -130q-52 -56 -124 -83q-63 -21 -129 -22q-66 1 -128 22q-72 28 -123 84q-49 59 -72 131q-23 76 -23 156zM161 335
q0 -61 16 -119q17 -53 51 -97q65 -77 167 -77q44 0 85 15q50 20 84 61q35 44 50 97q16 59 17 120q-1 60 -18 118q-16 54 -51 97q-34 41 -83 62q-41 15 -84 16q-44 -1 -84 -16q-49 -20 -84 -61q-34 -44 -50 -97q-17 -59 -16 -119zM555 385v-100h-316v100h316z" />
    <glyph glyph-name="Iota" unicode="&#x399;" horiz-adv-x="278" 
d="M195 710v-750h-113v750h113z" />
    <glyph glyph-name="Kappa" unicode="&#x39a;" horiz-adv-x="706" 
d="M194 710v-347l324 347h136l-274 -300l312 -450h-137l-254 364l-107 -118v-246h-112v750h112z" />
    <glyph glyph-name="Lambda" unicode="&#x39b;" horiz-adv-x="744" 
d="M311 710h124l303 -750h-120l-244 615h-2l-246 -615h-120z" />
    <glyph glyph-name="Mu" unicode="&#x39c;" horiz-adv-x="982" 
d="M239 710l253 -603h1l249 603h157v-750h-112v571h-2l-238 -571h-109l-242 571h-2v-571h-112v750h157z" />
    <glyph glyph-name="Nu" unicode="&#x39d;" horiz-adv-x="794" 
d="M200 710l397 -573h2v573h112v-750h-118l-397 573h-1v-573h-113v750h118z" />
    <glyph glyph-name="Xi" unicode="&#x39e;" horiz-adv-x="709" 
d="M655 60v-100h-602v100h602zM645 710v-100h-582v100h582zM610 391v-100h-512v100h512z" />
    <glyph glyph-name="Omicron" unicode="&#x39f;" horiz-adv-x="792" 
d="M161 335q0 -61 16 -119q17 -53 51 -97q65 -77 167 -77q44 0 85 15q50 20 84 61q35 44 50 97q16 59 17 120q-1 60 -18 118q-16 54 -51 97q-34 41 -83 62q-41 15 -84 16q-44 -1 -84 -16q-49 -20 -84 -61q-34 -44 -50 -97q-17 -59 -16 -119zM49 335q0 80 23 157
q23 72 72 130q51 57 123 84q62 21 128 22q65 -1 128 -22q72 -27 123 -84q49 -58 72 -131q23 -76 24 -156q0 -81 -23 -158q-23 -72 -71 -130q-52 -56 -124 -83q-63 -21 -129 -22q-66 1 -128 22q-72 28 -123 84q-49 59 -72 131q-23 76 -23 156z" />
    <glyph glyph-name="Pi" unicode="&#x3a0;" horiz-adv-x="796" 
d="M713 710v-750h-114v651h-403v-651h-114v750h631z" />
    <glyph glyph-name="Rho" unicode="&#x3a1;" horiz-adv-x="675" 
d="M363 710q52 -1 103 -12q54 -12 97 -46q37 -31 55 -75q16 -47 17 -97q-1 -52 -18 -101q-18 -45 -55 -76q-44 -34 -97 -46q-51 -12 -102 -11h-169v-286h-112v750h281zM194 345h154q31 0 63 6q33 6 62 24q24 17 37 44q12 29 13 61q-1 30 -13 59q-14 25 -37 42q-29 17 -62 24
q-30 6 -61 6h-156v-266z" />
    <glyph glyph-name="Sigma" unicode="&#x3a3;" horiz-adv-x="731" 
d="M376 338l-297 291v81h573v-99h-413l244 -242v-65l-248 -245h442v-99h-603v80z" />
    <glyph glyph-name="Tau" unicode="&#x3a4;" horiz-adv-x="598" 
d="M591 710v-99h-237v-651h-112v651h-236v99h585z" />
    <glyph glyph-name="Upsilon" unicode="&#x3a5;" horiz-adv-x="679" 
d="M137 710l205 -336h2q98 168 198 336h131l-274 -453v-297h-113v297l-280 453h131z" />
    <glyph glyph-name="Phi" unicode="&#x3a6;" horiz-adv-x="861" 
d="M49 338q0 48 15 94q20 57 63 102q46 45 105 70q68 28 141 35v71h113v-71q71 -7 138 -33q60 -25 106 -70q44 -44 65 -102q15 -47 16 -96q-1 -49 -16 -96q-20 -58 -64 -103q-46 -45 -105 -71q-68 -27 -140 -34v-74h-113v75q-72 6 -139 33q-60 25 -106 70q-43 44 -64 103
q-15 47 -15 97zM698 338q-1 34 -10 68q-13 40 -41 73q-30 31 -69 49q-44 19 -92 26v-435q47 6 92 25q39 18 69 50q28 32 41 73q9 35 10 71zM161 338q0 -36 9 -70q12 -41 41 -74q29 -31 68 -50q45 -19 94 -25v435q-49 -7 -94 -26q-39 -19 -68 -50q-28 -32 -41 -72
q-9 -34 -9 -68z" />
    <glyph glyph-name="Chi" unicode="&#x3a7;" horiz-adv-x="668" 
d="M146 710l187 -274l188 274h130l-253 -369l261 -381h-130l-196 286l-195 -286h-130l260 381l-252 369h130z" />
    <glyph glyph-name="Psi" unicode="&#x3a8;" horiz-adv-x="872" 
d="M168 611q-1 -76 8 -150q6 -39 16 -76q9 -30 23 -59q24 -46 68 -73q45 -25 96 -29v475h113v-475q50 6 94 32q44 30 68 77q14 28 23 59q10 36 16 74q8 72 9 145h113q-1 -85 -13 -169q-9 -46 -23 -90q-14 -38 -35 -74q-39 -63 -103 -101q-33 -18 -69 -29q-40 -10 -80 -14
v-189h-113v189q-41 4 -81 14q-36 10 -70 27q-64 37 -103 100q-20 35 -34 74q-14 45 -23 91q-13 85 -12 171h112z" />
    <glyph glyph-name="uni03A9" unicode="&#x3a9;" horiz-adv-x="844" 
d="M263 59q-99 59 -161 156q-47 76 -49 166q0 71 26 137q28 65 80 115q57 52 131 75q64 18 132 20q66 -2 131 -20q74 -23 131 -75q52 -50 80 -115q26 -66 27 -137q-1 -37 -11 -73q-14 -49 -41 -93q-63 -96 -159 -156h210v-99h-314v90q45 36 88 77q38 38 67 83q48 75 50 165
q-1 54 -20 104q-20 49 -58 86q-40 37 -92 55q-44 13 -89 14q-46 -1 -90 -14q-52 -18 -92 -55q-38 -37 -58 -86q-19 -50 -19 -104q1 -90 49 -165q29 -46 67 -84q42 -41 89 -76v-90h-314v99h209z" />
    <glyph glyph-name="alpha" unicode="&#x3b1;" horiz-adv-x="675" 
d="M43 222q-1 57 13 112q13 56 46 103q37 47 92 69q51 18 106 19q68 0 122 -41q50 -43 74 -104q13 74 49 142l104 -25q-27 -54 -44 -111q-21 -68 -30 -138q8 -76 27 -150q19 -67 54 -126l-110 -27q-37 75 -50 158q-15 -37 -36 -70q-20 -29 -48 -50q-52 -39 -117 -41
q-49 1 -95 17q-53 22 -90 64q-34 42 -51 94q-16 51 -16 105zM153 232q-1 -41 10 -80q11 -36 33 -65q43 -51 111 -51q30 0 57 15q28 17 48 44q22 34 35 73q10 35 16 72q-9 43 -25 84q-14 33 -37 61q-38 43 -94 45q-30 -1 -57 -10q-32 -13 -55 -40q-22 -29 -32 -65
q-11 -41 -10 -83z" />
    <glyph glyph-name="beta" unicode="&#x3b2;" horiz-adv-x="619" 
d="M65 470q0 56 17 110q18 48 55 84q39 36 90 51q46 12 93 13q50 -1 98 -14q43 -14 77 -42q32 -30 46 -72q11 -36 12 -73q1 -62 -31 -114q-18 -26 -44 -44q-28 -18 -60 -27q35 -9 68 -26q29 -16 51 -42q20 -27 29 -59q7 -28 8 -56q-1 -42 -13 -82q-16 -45 -51 -77
q-35 -29 -79 -43q-47 -14 -96 -15q-49 0 -95 14q-36 11 -65 33v-197h-110v678zM175 98q61 -60 147 -60q28 0 55 8q26 9 47 27q21 20 31 47q7 24 8 50q-1 28 -11 54q-13 25 -35 41q-29 18 -63 25q-33 6 -67 6v91q33 -1 66 7q28 7 51 25q21 19 30 46q7 25 8 51q0 48 -32 84
q-19 18 -43 26q-23 6 -46 7q-27 -1 -52 -8q-29 -10 -52 -32q-21 -23 -32 -54q-11 -36 -10 -74v-367z" />
    <glyph glyph-name="gamma" unicode="&#x3b3;" horiz-adv-x="686" 
d="M105 525q49 -27 87 -68q41 -47 70 -102q31 -64 49 -134q15 -60 24 -121q40 114 97 221q56 109 133 205l114 -34q-66 -70 -118 -151q-60 -94 -108 -194q-48 -102 -82 -208q-23 -74 -35 -150l-119 15q20 100 36 199q-11 151 -81 287q-34 63 -84 115q-38 36 -82 62z" />
    <glyph glyph-name="delta" unicode="&#x3b4;" horiz-adv-x="614" 
d="M44 196q0 43 9 85q12 48 40 89q29 38 69 64q43 27 92 43q-50 22 -95 54q-25 18 -45 43q-24 30 -34 66q-10 42 -9 85l108 10q-1 -29 5 -57q7 -31 25 -58q19 -27 46 -46q33 -22 69 -37q63 -29 121 -69q34 -24 62 -56q31 -38 48 -85q15 -49 15 -100q-1 -54 -16 -105
q-16 -52 -52 -93q-40 -43 -96 -62q-52 -16 -106 -17q-58 0 -113 20q-47 18 -83 54q-34 38 -49 88q-11 41 -11 84zM149 209q0 -33 9 -64q10 -33 35 -59q48 -43 113 -42q29 0 57 9q33 12 57 37q22 26 33 59q11 35 12 73q0 62 -33 115q-38 54 -97 83q-46 -13 -87 -34
q-34 -19 -60 -48q-23 -30 -32 -66q-8 -31 -7 -63z" />
    <glyph glyph-name="epsilon" unicode="&#x3b5;" horiz-adv-x="614" 
d="M47 104q-1 56 39 96q40 34 94 42q-48 10 -83 43q-32 37 -31 86q0 28 12 53q17 33 48 54q35 23 76 33q46 11 93 12q46 0 91 -9q29 -6 57 -17q71 -33 114 -98l-105 -30q-26 30 -61 47q-41 18 -85 18q-51 0 -93 -26q-16 -11 -26 -27q-6 -12 -6 -24q-1 -20 11 -36
q15 -17 36 -24q22 -7 45 -10q42 -6 85 -5h51v-80h-51q-45 0 -90 -6q-33 -4 -63 -17q-22 -10 -35 -30q-8 -14 -8 -30q0 -21 11 -39q13 -18 33 -28q47 -23 101 -21q50 -2 96 16q36 17 59 50l105 -35q-45 -64 -117 -95q-28 -11 -57 -17q-45 -8 -91 -8q-51 1 -101 11
q-45 9 -85 32q-36 20 -55 57q-14 29 -14 62z" />
    <glyph glyph-name="zeta" unicode="&#x3b6;" horiz-adv-x="587" 
d="M44 175q0 54 16 106q24 71 68 130q47 63 107 114q64 53 135 96q-123 -3 -244 7l2 89q103 -8 207 -7q81 -1 163 8l7 -84q-82 -50 -157 -109q-62 -52 -113 -115q-35 -47 -58 -101q-21 -54 -22 -112q-1 -27 8 -53q10 -30 35 -49q28 -21 63 -29q44 -9 90 -8q35 -1 70 -5
q36 -5 68 -20q25 -13 40 -34q13 -24 14 -51q-2 -46 -32 -82q-34 -39 -82 -59l-49 50q23 12 40 32q11 16 12 34q0 25 -21 35q-17 7 -35 8q-26 3 -53 2q-59 0 -116 12q-50 11 -92 38q-39 29 -57 74q-15 40 -14 83z" />
    <glyph glyph-name="eta" unicode="&#x3b7;" horiz-adv-x="670" 
d="M0 472q26 23 59 38q29 14 62 15q39 1 71 -21q15 -12 25 -29q10 -20 15 -41q37 43 88 69q45 21 96 22q33 -1 66 -8q37 -11 67 -35q27 -25 41 -60q14 -40 15 -83v-576h-110v537q0 30 -9 59q-7 25 -24 44q-18 18 -42 26q-21 5 -42 6q-40 -1 -74 -20q-42 -24 -72 -62v-393
h-110v404q1 30 -11 57q-11 19 -33 20q-15 -1 -29 -8q-15 -9 -27 -21l-22 60v0z" />
    <glyph glyph-name="theta" unicode="&#x3b8;" horiz-adv-x="643" 
d="M44 335q-1 70 12 140q8 39 22 77q13 32 32 63q34 53 90 84q57 29 122 29q63 0 120 -28q56 -30 90 -83q19 -30 32 -62q13 -38 21 -77q12 -71 13 -143q-1 -72 -14 -142q-8 -39 -22 -77q-14 -33 -33 -63q-35 -53 -90 -83q-55 -27 -117 -28q-63 1 -119 28q-55 30 -90 83
q-20 30 -33 63q-14 37 -23 77q-14 70 -13 142zM158 294q0 -50 8 -100q8 -49 32 -93q20 -34 53 -54q33 -17 71 -16q36 0 69 16q32 20 51 53q24 45 32 94t10 100h-326zM483 382q-2 47 -9 94q-8 48 -30 91q-41 70 -122 71q-39 -1 -73 -18q-33 -20 -51 -53q-23 -43 -31 -91
q-8 -47 -8 -94h324z" />
    <glyph glyph-name="iota" unicode="&#x3b9;" horiz-adv-x="308" 
d="M175 510v-407q-1 -15 2 -30q2 -12 8 -22q12 -16 34 -15q38 0 65 30l23 -71q-28 -26 -63 -39q-34 -12 -69 -13q-46 -1 -79 29q-16 18 -23 39q-9 27 -8 55v444h110z" />
    <glyph glyph-name="kappa" unicode="&#x3ba;" horiz-adv-x="552" 
d="M175 510v-212q69 69 146 131q64 52 135 94l74 -77q-64 -35 -122 -78q-66 -49 -127 -103q49 -66 107 -123q75 -73 158 -137l-92 -62q-78 65 -149 137q-53 54 -98 114q-17 -16 -32 -33v-200h-110v549h110z" />
    <glyph glyph-name="lambda" unicode="&#x3bb;" horiz-adv-x="597" 
d="M244 493q-9 31 -23 60q-16 31 -42 55q-24 20 -54 30q-32 9 -65 10l17 80q41 -1 82 -9q47 -12 87 -40q38 -29 64 -69q28 -47 45 -99q30 -100 63 -198q24 -72 56 -141q46 -102 116 -188l-97 -43q-63 83 -104 179q-56 133 -96 271l-176 -432h-111z" />
    <glyph glyph-name="uni03BC" unicode="&#x3bc;" horiz-adv-x="663" 
d="M175 510v-364q-1 -46 31 -79q40 -35 94 -34q37 0 71 17q39 20 67 56v404h110v-402q-2 -31 12 -57q11 -19 34 -19q36 2 63 29l5 -67q-25 -24 -57 -37t-65 -14q-31 0 -56 17q-25 21 -33 53q-32 -33 -74 -53q-36 -16 -75 -17q-43 0 -81 20q-30 17 -46 47v-217h-110v717h110z
" />
    <glyph glyph-name="nu" unicode="&#x3bd;" horiz-adv-x="574" 
d="M122 510l173 -457q82 97 122 218q38 116 38 239h113q-2 -153 -59 -295t-161 -254h-127l-215 549h116z" />
    <glyph glyph-name="xi" unicode="&#x3be;" horiz-adv-x="583" 
d="M44 151q0 34 12 66q18 42 49 73q34 32 76 54q43 21 90 32q-29 3 -57 11q-28 7 -52 24q-38 28 -38 76q0 49 36 84q39 34 90 47q-85 -1 -168 11l6 89q106 -9 214 -8q83 -1 166 9l6 -90q-37 -3 -73 -8q-66 -8 -121 -43q-22 -16 -36 -40q-9 -17 -9 -36q1 -41 37 -59
q27 -12 57 -16q42 -5 85 -4v-81q-47 -6 -92 -17q-48 -13 -92 -38q-34 -21 -57 -53q-19 -30 -19 -65q-1 -22 7 -42q10 -25 31 -40q26 -17 57 -23q40 -8 81 -7q41 -1 82 -5q39 -5 75 -21q25 -13 40 -36q13 -25 13 -53q-1 -45 -30 -80q-38 -40 -91 -55l-45 52q22 10 40 27
q15 16 16 37q0 24 -21 35q-16 6 -34 8q-29 3 -57 2q-62 0 -123 12q-47 10 -88 36q-35 25 -52 65q-12 34 -11 70z" />
    <glyph glyph-name="omicron" unicode="&#x3bf;" horiz-adv-x="625" 
d="M44 235q0 59 18 116q19 54 57 96q41 42 96 62q47 15 97 16q50 -1 97 -16q55 -19 96 -61q38 -42 57 -96q18 -57 19 -117q-1 -62 -19 -120q-19 -55 -57 -97q-41 -41 -96 -60q-48 -15 -97 -16q-50 1 -97 16q-55 20 -96 61q-38 43 -57 97q-18 58 -18 119zM154 235
q-1 -44 11 -86q11 -36 34 -65q24 -26 57 -38q27 -9 56 -9t56 8q33 13 57 38q23 29 34 65q11 42 12 87q-1 43 -13 85q-12 35 -36 64q-45 46 -110 46q-75 -1 -120 -60q-22 -32 -31 -70q-7 -32 -7 -65z" />
    <glyph glyph-name="pi" unicode="&#x3c0;" horiz-adv-x="767" 
d="M5 476q28 18 61 24q44 10 90 10h606v-94h-133v-455h-110v455h-250v-455h-110v455h-31q-57 -1 -105 -27l-18 87v0z" />
    <glyph glyph-name="rho" unicode="&#x3c1;" horiz-adv-x="652" 
d="M65 234q-1 64 20 125q20 54 60 95q43 40 99 57q48 13 98 14q49 -1 96 -16q54 -19 94 -60q38 -43 57 -96q18 -59 19 -119q0 -65 -19 -126q-17 -54 -55 -95q-38 -39 -90 -57q-44 -13 -90 -14q-58 0 -108 28q-50 31 -72 87v-294h-109v471zM176 235q-1 -41 10 -79
q10 -37 33 -66q46 -55 118 -54q30 0 60 10q33 13 57 41q22 30 32 66q10 40 11 82q-1 41 -11 80q-11 35 -34 64q-23 27 -57 41q-28 9 -58 10q-31 -1 -61 -11q-33 -14 -57 -42q-23 -29 -33 -64q-11 -39 -10 -78z" />
    <glyph glyph-name="sigma" unicode="&#x3c3;" horiz-adv-x="645" 
d="M44 235q-1 60 19 118q18 54 57 96q40 41 95 60q48 15 98 16q51 -1 100 -16q112 -2 223 16l7 -92q-64 -14 -129 -12q33 -30 48 -72q19 -57 19 -116q-1 -61 -18 -120q-17 -53 -54 -96q-40 -41 -95 -59q-49 -15 -99 -16q-52 1 -101 16q-56 19 -97 61q-38 42 -56 97
q-18 58 -17 119zM154 235q-1 -44 10 -86q11 -36 34 -65q23 -27 56 -39q29 -9 59 -9q29 0 57 9q33 13 57 40q22 29 33 65q10 41 11 85q-1 42 -13 84q-12 35 -36 63q-44 47 -109 48q-76 -1 -121 -61q-22 -31 -31 -69q-7 -32 -7 -65z" />
    <glyph glyph-name="tau" unicode="&#x3c4;" horiz-adv-x="641" 
d="M5 477q27 18 59 24q43 9 87 9h484v-94h-259v-312q-2 -29 13 -53q14 -16 36 -15q38 0 65 30l24 -70q-57 -51 -133 -52q-27 0 -52 9q-22 9 -37 27q-16 20 -21 45q-6 22 -5 46v345h-137q-29 -1 -57 -7q-27 -6 -50 -19l-17 87v0z" />
    <glyph glyph-name="upsilon" unicode="&#x3c5;" horiz-adv-x="640" 
d="M175 510v-325q-1 -32 9 -62q10 -28 30 -49q23 -21 52 -30q26 -8 54 -7q27 0 53 7q29 9 51 30q20 21 31 48q9 31 10 63v325h110v-332q-1 -51 -20 -97q-19 -45 -56 -78q-40 -33 -92 -48q-44 -12 -90 -13q-47 1 -91 13q-50 15 -90 48q-35 33 -54 78q-17 47 -17 97v332h110z
" />
    <glyph glyph-name="phi" unicode="&#x3c6;" horiz-adv-x="795" 
d="M44 242q-1 91 39 172q36 68 99 112l80 -75q-49 -30 -77 -80q-32 -61 -31 -129q-1 -44 12 -85q13 -37 39 -66q29 -28 66 -43q33 -13 69 -17v289q-1 36 8 72q9 40 35 73q25 29 60 45q40 14 84 15q40 -1 78 -12q46 -16 80 -51q33 -39 49 -88q17 -60 17 -121q-1 -51 -15 -100
q-19 -60 -59 -108q-42 -46 -99 -72q-61 -27 -128 -31v-153h-110v153q-66 3 -127 28q-56 24 -97 67q-40 46 -58 104q-14 49 -14 101zM450 31q37 5 72 20q39 19 68 52q51 66 51 150q-1 36 -8 71q-6 31 -22 59q-14 23 -38 37q-19 9 -39 10q-38 0 -62 -28q-24 -34 -22 -76v-295z
" />
    <glyph glyph-name="chi" unicode="&#x3c7;" horiz-adv-x="598" 
d="M72 530q26 -15 50 -34q34 -29 63 -64q65 -84 119 -176l186 269l93 -36l-224 -323q54 -101 117 -195q49 -73 116 -132l-85 -59q-60 54 -104 121q-57 86 -106 177l-197 -285l-94 40l236 337q-54 94 -119 181q-29 38 -64 70q-23 21 -50 38z" />
    <glyph glyph-name="psi" unicode="&#x3c8;" horiz-adv-x="854" 
d="M98 531q45 -39 67 -94q21 -66 20 -135q-1 -57 10 -113q9 -47 35 -87q26 -36 67 -56q36 -16 76 -21v485h110v-484q47 8 88 34q25 17 44 40q20 26 34 55q14 34 23 69q10 41 16 82q11 101 11 204h111q0 -117 -18 -233q-10 -49 -25 -96q-15 -43 -37 -82q-22 -36 -51 -66
q-30 -29 -66 -48q-62 -31 -130 -39v-156h-110v156q-61 6 -118 29q-63 26 -107 78q-39 51 -57 113q-17 66 -16 134q0 52 -15 101q-17 45 -51 79z" />
    <glyph glyph-name="omega" unicode="&#x3c9;" horiz-adv-x="1002" 
d="M44 195q1 108 56 200q50 82 133 130l70 -50q-68 -41 -108 -109q-41 -73 -41 -156q-1 -40 10 -77q10 -32 32 -56q22 -23 51 -34q25 -7 51 -7q32 -1 61 12q29 17 47 45q23 42 31 88q8 49 10 100q1 59 2 120h100q0 -61 2 -120q1 -51 9 -100q9 -46 32 -87q39 -58 109 -58
q28 0 56 9q31 13 52 38q20 27 29 59q9 33 10 69q0 78 -36 148q-42 75 -119 116l74 50q86 -47 138 -130q53 -92 53 -197q-1 -54 -18 -105q-17 -48 -52 -84q-39 -37 -90 -53q-45 -13 -91 -14q-32 1 -64 7q-35 9 -66 30q-28 20 -48 49q-20 33 -30 70q-11 -37 -30 -70
q-19 -28 -46 -49q-31 -21 -67 -30q-32 -6 -64 -7q-46 1 -90 14q-50 16 -88 52q-35 36 -53 83q-18 50 -17 104z" />
    <glyph glyph-name="uni0401" unicode="&#x401;" horiz-adv-x="695" 
d="M636 710v-99h-442v-215h400v-100h-400v-237h447v-99h-559v750h554zM556 924v-102h-131v102h131zM292 924v-102h-131v102h131z" />
    <glyph glyph-name="uni0410" unicode="&#x410;" horiz-adv-x="731" 
d="M306 710h123l295 -750h-117l-74 191h-335l-75 -191h-117zM237 251h258l-127 329h-1z" />
    <glyph glyph-name="uni0411" unicode="&#x411;" horiz-adv-x="675" 
d="M574 710v-99h-379v-216h178q48 -1 96 -10q50 -10 91 -40q36 -29 53 -70q17 -48 17 -98q-1 -42 -11 -81q-14 -45 -48 -78q-37 -30 -84 -43q-59 -15 -119 -15h-286v750h492zM195 59h161q34 -1 67 5q28 6 53 22q22 17 32 42q8 24 9 49q-1 24 -9 47q-10 26 -32 42
q-25 16 -53 22q-33 7 -67 7h-161v-236z" />
    <glyph glyph-name="uni0412" unicode="&#x412;" horiz-adv-x="694" 
d="M354 710q51 -1 103 -9q51 -9 96 -37q35 -24 53 -63q17 -41 17 -86q-1 -56 -32 -102q-36 -49 -94 -69q29 -7 56 -19q31 -16 54 -41q42 -49 42 -113q-1 -40 -12 -79q-14 -44 -49 -75q-38 -30 -87 -42q-61 -15 -123 -15h-296v750h272zM195 59h159q42 -1 84 8q31 7 58 25
q41 32 41 85q-1 24 -10 46q-12 26 -37 41q-28 16 -60 22q-39 6 -77 6h-158v-233zM195 391h149q35 -1 69 8q30 8 55 25q41 28 43 78q0 48 -38 78q-24 17 -54 23q-38 8 -77 8h-147v-220z" />
    <glyph glyph-name="uni0413" unicode="&#x413;" horiz-adv-x="610" 
d="M590 710v-99h-396v-651h-112v750h508z" />
    <glyph glyph-name="uni0414" unicode="&#x414;" horiz-adv-x="771" 
d="M67 59q66 110 89 236q10 58 15 116q7 100 7 200v99h502v-651h57l-3 -226h-79l-27 126h-509l-27 -126h-79l-2 226h56zM567 59v551h-276q-1 -81 -5 -161q-5 -82 -19 -163q-22 -121 -80 -227h380z" />
    <glyph glyph-name="uni0415" unicode="&#x415;" horiz-adv-x="695" 
d="M636 710v-99h-442v-215h400v-100h-400v-237h447v-99h-559v750h554z" />
    <glyph glyph-name="uni0416" unicode="&#x416;" horiz-adv-x="997" 
d="M152 710l290 -341v341h112v-341l290 341h139l-325 -375l325 -375h-139l-290 341v-341h-112v341l-290 -341h-139l325 375l-325 375h139z" />
    <glyph glyph-name="uni0417" unicode="&#x417;" horiz-adv-x="696" 
d="M152 158q6 -25 21 -45q21 -26 51 -42q59 -30 126 -30q39 0 78 10q32 10 60 30q45 35 47 92q-1 22 -10 42q-14 26 -39 44q-27 18 -59 28q-34 9 -70 10h-89v95h84q58 0 107 31q24 16 40 40q13 22 15 49q-1 24 -14 45q-15 22 -38 37q-53 30 -113 29q-65 0 -121 -31
q-47 -28 -61 -80l-111 17q10 45 38 82q31 38 72 63q86 48 185 48q59 -1 117 -16q49 -15 90 -45q66 -53 69 -137q-1 -60 -36 -108q-37 -49 -95 -70q35 -10 66 -28q28 -17 49 -43q36 -48 36 -107q-1 -50 -22 -95q-24 -45 -65 -73q-48 -33 -105 -46q-52 -11 -105 -12
q-53 1 -104 12q-51 12 -97 39q-84 51 -108 148z" />
    <glyph glyph-name="uni0418" unicode="&#x418;" horiz-adv-x="794" 
d="M194 710v-573h2l397 573h118v-750h-113v573h-1l-397 -573h-118v750h112z" />
    <glyph glyph-name="uni0419" unicode="&#x419;" horiz-adv-x="794" 
d="M82 710h113v-574l1 1l397 573h118v-750h-112v572h-2l-397 -572h-118v750zM279 956q4 -53 36 -95q31 -37 81 -37q49 0 81 37q31 42 36 95h82q-5 -42 -23 -79q-19 -38 -51 -66q-30 -23 -66 -34q-29 -7 -59 -7q-31 0 -60 7q-36 11 -66 34q-32 28 -51 66q-18 37 -22 79h82z
" />
    <glyph glyph-name="uni041A" unicode="&#x41a;" horiz-adv-x="706" 
d="M194 710v-347l324 347h136l-274 -300l312 -450h-137l-254 364l-107 -118v-246h-112v750h112z" />
    <glyph glyph-name="uni041B" unicode="&#x41b;" horiz-adv-x="752" 
d="M15 -22q89 124 122 273q13 66 20 133q10 113 10 227v99h502v-750h-113v650h-277q0 -114 -9 -227q-8 -92 -28 -182q-31 -135 -106 -251l-121 28v0z" />
    <glyph glyph-name="uni041C" unicode="&#x41c;" horiz-adv-x="982" 
d="M239 710l253 -603h1l249 603h157v-750h-112v571h-2l-238 -571h-109l-242 571h-2v-571h-112v750h157z" />
    <glyph glyph-name="uni041D" unicode="&#x41d;" horiz-adv-x="785" 
d="M194 710v-314h396v314h112v-750h-112v336h-396v-336h-112v750h112z" />
    <glyph glyph-name="uni041E" unicode="&#x41e;" horiz-adv-x="792" 
d="M161 335q0 -61 16 -119q17 -53 51 -97q65 -77 167 -77q44 0 85 15q50 20 84 61q35 44 50 97q16 59 17 120q-1 60 -18 118q-16 54 -51 97q-34 41 -83 62q-41 15 -84 16q-44 -1 -84 -16q-49 -20 -84 -61q-34 -44 -50 -97q-17 -59 -16 -119zM49 335q0 80 23 157
q23 72 72 130q51 57 123 84q62 21 128 22q65 -1 128 -22q72 -27 123 -84q49 -58 72 -131q23 -76 24 -156q0 -81 -23 -158q-23 -72 -71 -130q-52 -56 -124 -83q-63 -21 -129 -22q-66 1 -128 22q-72 28 -123 84q-49 59 -72 131q-23 76 -23 156z" />
    <glyph glyph-name="uni041F" unicode="&#x41f;" horiz-adv-x="796" 
d="M713 710v-750h-114v651h-403v-651h-114v750h631z" />
    <glyph glyph-name="uni0420" unicode="&#x420;" horiz-adv-x="675" 
d="M363 710q52 -1 103 -12q54 -12 97 -46q37 -31 55 -75q16 -47 17 -97q-1 -52 -18 -101q-18 -45 -55 -76q-44 -34 -97 -46q-51 -12 -102 -11h-169v-286h-112v750h281zM194 345h154q31 0 63 6q33 6 62 24q24 17 37 44q12 29 13 61q-1 30 -13 59q-14 25 -37 42q-29 17 -62 24
q-30 6 -61 6h-156v-266z" />
    <glyph glyph-name="uni0421" unicode="&#x421;" horiz-adv-x="740" 
d="M49 336q-1 80 21 158q22 72 69 130q50 56 121 83q62 20 128 21q48 -1 94 -11q54 -14 100 -44q81 -57 113 -150l-114 -18q-23 53 -69 87q-57 37 -124 36q-52 0 -100 -22q-44 -22 -73 -63q-32 -48 -44 -104q-11 -51 -10 -103q0 -51 10 -100q12 -56 44 -104q29 -42 74 -67
q46 -23 99 -23q62 -2 116 29q57 37 83 101l112 -17q-18 -48 -47 -90q-30 -41 -71 -69q-46 -30 -100 -43q-46 -10 -93 -11q-64 1 -124 21q-70 26 -121 81q-48 58 -71 130q-24 79 -23 162z" />
    <glyph glyph-name="uni0422" unicode="&#x422;" horiz-adv-x="598" 
d="M591 710v-99h-237v-651h-112v651h-236v99h585z" />
    <glyph glyph-name="uni0423" unicode="&#x423;" horiz-adv-x="614" 
d="M126 710l187 -413l174 413h120l-294 -676q-17 -38 -51 -61q-40 -22 -84 -21q-39 1 -77 9v93q23 -8 49 -8q25 -1 47 10q17 11 27 30l33 78l-251 546h120z" />
    <glyph glyph-name="uni0424" unicode="&#x424;" horiz-adv-x="861" 
d="M49 338q0 48 15 94q20 57 63 102q46 45 105 70q68 28 141 35v71h113v-71q71 -7 138 -33q60 -25 106 -70q44 -44 65 -102q15 -47 16 -96q-1 -49 -16 -96q-20 -58 -64 -103q-46 -45 -105 -71q-68 -27 -140 -34v-74h-113v75q-72 6 -139 33q-60 25 -106 70q-43 44 -64 103
q-15 47 -15 97zM698 338q-1 34 -10 68q-13 40 -41 73q-30 31 -69 49q-44 19 -92 26v-435q47 6 92 25q39 18 69 50q28 32 41 73q9 35 10 71zM161 338q0 -36 9 -70q12 -41 41 -74q29 -31 68 -50q45 -19 94 -25v435q-49 -7 -94 -26q-39 -19 -68 -50q-28 -32 -41 -72
q-9 -34 -9 -68z" />
    <glyph glyph-name="uni0425" unicode="&#x425;" horiz-adv-x="668" 
d="M146 710l187 -274l188 274h130l-253 -369l261 -381h-130l-196 286l-195 -286h-130l260 381l-252 369h130z" />
    <glyph glyph-name="uni0426" unicode="&#x426;" horiz-adv-x="761" 
d="M195 710v-651h381v651h113v-651h51l-2 -211h-80l-26 112h-550v750h113z" />
    <glyph glyph-name="uni0427" unicode="&#x427;" horiz-adv-x="714" 
d="M165 710v-234q-1 -37 10 -73q9 -31 31 -54q24 -23 56 -33q29 -8 60 -7q56 0 111 17q45 14 85 42v342h113v-750h-113v312q-51 -32 -109 -46q-55 -14 -110 -13q-46 0 -91 12q-50 15 -88 51q-35 35 -51 82q-18 52 -17 107v245h113z" />
    <glyph glyph-name="uni0428" unicode="&#x428;" horiz-adv-x="1003" 
d="M195 710v-651h250v651h112v-651h250v651h113v-750h-838v750h113z" />
    <glyph glyph-name="uni0429" unicode="&#x429;" horiz-adv-x="992" 
d="M195 710v-651h250v651h112v-651h250v651h113v-651h51v-211h-82l-26 112h-781v750h113z" />
    <glyph glyph-name="uni042A" unicode="&#x42a;" horiz-adv-x="823" 
d="M340 710v-295h178q48 -1 96 -12q51 -12 91 -45q35 -31 53 -75q16 -47 17 -96q0 -54 -20 -103q-19 -43 -56 -73q-42 -29 -93 -41q-46 -9 -93 -10h-285v651h-222v99h334zM340 59h161q34 0 68 8q29 8 53 26q22 19 33 46q7 23 8 48q-1 24 -8 47q-11 27 -32 46q-24 18 -53 26
q-34 8 -69 9h-161v-256z" />
    <glyph glyph-name="uni042B" unicode="&#x42b;" horiz-adv-x="943" 
d="M195 710v-295h178q48 -1 96 -12q51 -12 91 -45q35 -31 53 -75q16 -47 17 -96q0 -54 -20 -103q-19 -43 -56 -73q-43 -29 -94 -41q-46 -9 -92 -10h-286v750h113zM860 710v-751h-112v751h112zM195 59h161q34 -1 68 8q29 8 53 26q21 19 32 46q7 23 8 48q-1 24 -8 47
q-11 27 -32 46q-24 18 -53 26q-34 8 -68 9h-161v-256z" />
    <glyph glyph-name="uni042C" unicode="&#x42c;" horiz-adv-x="678" 
d="M195 710v-295h178q48 -1 96 -12q51 -12 91 -45q35 -31 53 -75q16 -47 17 -96q0 -54 -20 -103q-19 -43 -56 -73q-43 -29 -94 -41q-46 -9 -92 -10h-286v750h113zM195 59h161q34 -1 68 8q29 8 53 26q21 19 32 46q7 23 8 48q-1 24 -8 47q-11 27 -32 46q-24 18 -53 26
q-34 8 -68 9h-161v-256z" />
    <glyph glyph-name="uni042D" unicode="&#x42d;" horiz-adv-x="736" 
d="M45 542q37 86 117 137q45 27 96 39q44 9 90 10q65 -1 127 -21q70 -27 120 -83q47 -58 69 -130q22 -78 22 -158q0 -83 -24 -162q-23 -72 -71 -130q-50 -55 -120 -81q-60 -19 -123 -21q-46 1 -91 10q-51 11 -97 38q-82 50 -120 140l112 21q30 -55 85 -85q52 -25 111 -24
q96 0 159 73q30 40 46 87q13 40 18 83h-324v100h325q-5 43 -17 86q-16 47 -46 86q-30 34 -71 53q-43 17 -90 18q-56 0 -105 -23q-54 -29 -85 -82l-113 19v0z" />
    <glyph glyph-name="uni042E" unicode="&#x42e;" horiz-adv-x="1044" 
d="M192 710v-326h151q5 72 29 139q24 64 69 114q47 49 112 72q55 18 114 19q63 -1 122 -22q69 -27 117 -84q46 -59 66 -131q22 -77 22 -156q0 -80 -21 -158q-20 -71 -66 -130q-47 -56 -116 -83q-61 -21 -124 -22q-59 1 -114 19q-64 23 -111 71q-45 51 -69 114
q-25 67 -30 139h-151v-325h-110v750h110zM453 335q-1 -61 14 -119q14 -53 45 -97q58 -76 155 -77q41 0 80 15q46 20 76 61q31 44 44 97q14 59 15 120q-1 60 -16 118q-14 53 -45 97q-59 76 -154 78q-96 -2 -155 -77q-31 -45 -45 -97q-15 -59 -14 -119z" />
    <glyph glyph-name="uni042F" unicode="&#x42f;" horiz-adv-x="694" 
d="M37 -40q18 46 28 96t15 101q2 53 28 99q29 45 79 64v1q-50 23 -82 67q-36 51 -39 113q0 45 16 88q18 40 53 68q40 31 90 42q46 10 94 11h292v-750h-112v310h-185q-50 0 -86 -32q-18 -17 -28 -41q-10 -25 -11 -52q-5 -59 -15 -117q-6 -34 -19 -68h-118zM179 494
q0 -28 11 -52q12 -24 33 -41q24 -18 52 -25q26 -6 52 -6h172v241h-167q-28 -1 -56 -6q-29 -6 -54 -22q-44 -34 -43 -89z" />
    <glyph glyph-name="uni0430" unicode="&#x430;" horiz-adv-x="607" 
d="M45 85q0 39 16 75q25 47 70 75q57 34 122 51q83 21 169 32v25q-1 41 -32 67q-20 14 -44 20q-24 4 -47 5q-45 1 -84 -20q-37 -22 -53 -61l-102 14q14 37 38 68q25 30 58 51q69 39 148 38q41 -1 82 -9q43 -10 81 -35q31 -24 48 -59q16 -39 17 -80v-283q-2 -16 10 -25
q8 -5 18 -5q14 -1 28 1v-70q-37 -8 -74 -9q-27 1 -51 11q-20 8 -29 27q-5 17 -7 36q-42 -40 -97 -60q-52 -19 -107 -20q-35 1 -69 10q-33 9 -60 28q-49 38 -49 102zM155 97q-1 -28 21 -46q13 -9 29 -12q21 -5 42 -4q46 0 89 16q47 19 86 52v125q-54 -7 -108 -18
q-45 -9 -88 -27q-34 -15 -57 -43q-14 -19 -14 -43z" />
    <glyph glyph-name="uni0431" unicode="&#x431;" horiz-adv-x="596" 
d="M44 231q-1 93 15 186q8 39 21 77q12 34 31 65q38 60 100 94q54 26 113 37q78 12 150 45l28 -75q-36 -20 -74 -32q-45 -14 -91 -22q-37 -7 -71 -22q-37 -18 -63 -50q-25 -32 -38 -70q-14 -44 -21 -89q28 52 80 83q46 23 99 23q49 -1 95 -17q44 -18 75 -54q33 -43 46 -96
q11 -50 12 -101q-1 -58 -17 -113q-17 -50 -53 -88q-38 -38 -90 -54q-46 -13 -94 -14q-59 0 -113 22q-49 21 -82 62q-34 46 -47 102q-11 49 -11 101zM144 210q-1 -37 9 -72q9 -34 29 -63q22 -28 55 -42q29 -10 60 -10q32 0 62 11q33 14 55 43q20 29 29 63q8 34 9 70
q-1 36 -8 72q-9 37 -31 68q-20 25 -49 38q-31 12 -64 13q-67 -1 -111 -51q-23 -28 -34 -63q-11 -38 -11 -77z" />
    <glyph glyph-name="uni0432" unicode="&#x432;" horiz-adv-x="597" 
d="M285 510q59 0 119 -9q42 -7 79 -28q21 -15 35 -37q17 -34 17 -72q1 -45 -27 -79q-32 -32 -75 -43q48 -6 84 -39q36 -37 36 -89q-1 -33 -11 -63q-14 -35 -46 -54q-37 -21 -80 -28q-56 -9 -113 -9h-238v550h220zM175 49h128q34 -1 68 4q23 3 44 14q11 8 19 19q9 18 9 38
q0 39 -35 58q-24 11 -52 15q-30 4 -59 4h-122v-152zM175 280h111q33 -1 67 4q18 3 35 9q36 16 37 56q0 16 -7 31q-8 15 -23 23q-24 11 -51 14q-29 4 -59 4h-110v-141z" />
    <glyph glyph-name="uni0433" unicode="&#x433;" horiz-adv-x="511" 
d="M491 510v-94h-316v-457h-110v551h426z" />
    <glyph glyph-name="uni0434" unicode="&#x434;" horiz-adv-x="662" 
d="M73 49q48 63 67 141q12 52 17 106q6 64 6 130v84h416v-461h53l-2 -216h-77l-27 126h-409l-27 -126h-77l-2 216h62zM469 49v372h-196q1 -108 -19 -213q-16 -85 -59 -159h274z" />
    <glyph glyph-name="uni0435" unicode="&#x435;" horiz-adv-x="611" 
d="M46 233q0 59 18 117q18 53 55 96q39 43 93 63q46 15 95 16q48 -1 94 -15q53 -19 92 -60q36 -40 54 -92q17 -56 18 -113v-48h-410q-1 -36 11 -69q11 -31 34 -54q48 -43 113 -42q45 -1 86 20q40 22 63 62l100 -16q-33 -77 -103 -120q-37 -20 -77 -29q-35 -6 -70 -7
q-50 1 -97 15q-55 19 -95 59q-38 42 -56 96q-19 59 -18 121zM455 281q-1 62 -43 109q-43 44 -105 45q-63 -1 -107 -44q-43 -47 -45 -110h300z" />
    <glyph glyph-name="uni0436" unicode="&#x436;" horiz-adv-x="840" 
d="M139 510l225 -235v235h110v-236l226 236h134l-272 -276l272 -275h-134l-226 234v-234h-110v233l-225 -233h-134l271 275l-271 276h134z" />
    <glyph glyph-name="uni0437" unicode="&#x437;" horiz-adv-x="618" 
d="M57 395q32 59 91 91q36 19 75 28q45 8 90 9q42 -1 83 -7q46 -8 86 -29q33 -19 55 -50q18 -32 19 -68q0 -49 -32 -85q-34 -34 -81 -43q29 -5 57 -17q23 -10 41 -29q30 -36 29 -83q-1 -41 -20 -76q-22 -34 -57 -54q-43 -23 -92 -32q-44 -7 -89 -8q-44 1 -87 8q-40 8 -77 26
q-67 34 -101 102l97 36q25 -42 67 -64q49 -21 103 -19q32 0 63 6q25 7 47 20q34 24 36 65q-1 38 -34 57q-22 12 -46 16q-31 5 -62 5h-80v81h76q29 -1 58 4q23 4 43 15q30 19 31 56q-1 18 -11 33q-12 16 -29 25q-44 21 -93 20q-50 0 -95 -21q-39 -19 -64 -54l-97 36v0z" />
    <glyph glyph-name="uni0438" unicode="&#x438;" horiz-adv-x="656" 
d="M175 510v-384l1 -1l299 385h116v-551h-110v386l-1 1l-300 -387h-115v551h110z" />
    <glyph glyph-name="uni0439" unicode="&#x439;" horiz-adv-x="656" 
d="M65 510h110v-384l1 -1l299 385h116v-551h-110v386l-1 1l-300 -387h-115v551zM212 758q3 -53 35 -95q32 -37 82 -37q49 0 80 37q31 42 37 95h82q-5 -42 -23 -79q-19 -38 -51 -66q-30 -23 -66 -34q-29 -7 -59 -7q-31 0 -60 7q-36 11 -66 34q-32 28 -51 66q-18 37 -22 79h82
z" />
    <glyph glyph-name="uni043A" unicode="&#x43a;" horiz-adv-x="588" 
d="M175 510v-245l255 245h136l-255 -246l271 -305h-135l-212 232l-60 -58v-174h-110v551h110z" />
    <glyph glyph-name="uni043B" unicode="&#x43b;" horiz-adv-x="611" 
d="M6 -21q67 71 96 164q16 60 22 122q6 80 6 161v84h416v-550h-110v461h-196q-1 -71 -6 -142q-7 -68 -22 -134q-16 -62 -44 -120q-21 -39 -50 -75l-112 29v0z" />
    <glyph glyph-name="uni043C" unicode="&#x43c;" horiz-adv-x="820" 
d="M220 510l186 -414h2l191 414h156v-550h-110v400h-1l-186 -396h-102l-180 396h-2v-400h-109v550h155z" />
    <glyph glyph-name="uni043D" unicode="&#x43d;" horiz-adv-x="652" 
d="M175 510v-225h301v225h110v-551h-110v236h-301v-236h-110v551h110z" />
    <glyph glyph-name="uni043E" unicode="&#x43e;" horiz-adv-x="625" 
d="M44 235q0 59 18 116q19 54 57 96q41 42 96 62q47 15 97 16q50 -1 97 -16q55 -19 96 -61q38 -42 57 -96q18 -57 19 -117q-1 -62 -19 -120q-19 -55 -57 -97q-41 -41 -96 -60q-48 -15 -97 -16q-50 1 -97 16q-55 20 -96 61q-38 43 -57 97q-18 58 -18 119zM154 235
q-1 -44 11 -86q11 -36 34 -65q24 -26 57 -38q27 -9 56 -9t56 8q33 13 57 38q23 29 34 65q11 42 12 87q-1 43 -13 85q-12 35 -36 64q-45 46 -110 46q-75 -1 -120 -60q-22 -32 -31 -70q-7 -32 -7 -65z" />
    <glyph glyph-name="uni043F" unicode="&#x43f;" horiz-adv-x="652" 
d="M586 510v-551h-110v462h-301v-462h-110v551h521z" />
    <glyph glyph-name="uni0440" unicode="&#x440;" horiz-adv-x="636" 
d="M175 510v-60q35 34 79 55q45 20 94 21q45 -1 88 -14q50 -19 86 -59q35 -42 51 -96q16 -62 17 -126q-1 -64 -17 -126q-16 -52 -52 -94q-37 -38 -88 -55q-44 -13 -90 -14q-43 1 -82 16q-47 18 -86 50v-245h-110v747h110zM328 431q-41 -1 -77 -19q-43 -22 -76 -57v-255
q64 -61 153 -63q68 -1 111 51q21 30 31 65q9 38 10 78q-1 41 -10 81q-10 36 -31 66q-22 28 -54 42q-28 10 -57 11z" />
    <glyph glyph-name="uni0441" unicode="&#x441;" horiz-adv-x="596" 
d="M44 234q-1 62 19 121q20 54 59 96q41 40 95 59q46 14 95 15q39 -1 77 -10q43 -12 78 -37q58 -46 81 -116l-108 -14q-19 40 -55 63q-34 19 -73 19q-65 0 -110 -47q-24 -28 -36 -63q-13 -43 -12 -86q-1 -44 11 -85q11 -36 35 -65q43 -48 109 -47q47 -1 87 25q34 25 52 65
l107 -15q-26 -75 -88 -122q-37 -26 -80 -38q-39 -9 -78 -10q-47 1 -92 16q-54 19 -94 59q-39 42 -59 96q-20 59 -20 121z" />
    <glyph glyph-name="uni0442" unicode="&#x442;" horiz-adv-x="557" 
d="M551 510v-89h-218v-461h-110v461h-217v89h545z" />
    <glyph glyph-name="uni0443" unicode="&#x443;" horiz-adv-x="568" 
d="M123 510l165 -403l156 403h118l-274 -681q-16 -41 -54 -65q-35 -19 -74 -18q-38 0 -74 7v94q22 -4 46 -5q23 0 43 11q17 11 26 29l34 88l-230 540h118z" />
    <glyph glyph-name="uni0444" unicode="&#x444;" horiz-adv-x="1031" 
d="M45 231q-1 64 16 126q16 54 51 96q36 40 86 59q43 13 89 14q48 -1 93 -21q44 -21 80 -55v260h110v-261q35 34 79 56q45 20 94 21q45 -1 88 -14q51 -19 87 -59q35 -42 51 -96q16 -62 17 -126q-1 -64 -18 -126q-16 -52 -52 -94q-37 -38 -88 -55q-44 -13 -90 -14
q-96 3 -168 65v-244h-110v243q-73 -61 -168 -64q-47 1 -91 14q-51 17 -88 55q-36 42 -52 94q-17 62 -16 126zM723 436q-41 -1 -77 -19q-43 -22 -76 -57v-265q64 -61 153 -63q69 0 111 54q21 30 31 66q9 39 10 79q-1 41 -10 82q-10 37 -31 68q-42 55 -111 55zM307 32
q88 2 153 63v265q-34 34 -77 57q-36 18 -76 19q-70 -1 -112 -55q-21 -31 -31 -68q-10 -41 -9 -82q-1 -41 9 -79q10 -36 31 -66q43 -54 112 -54z" />
    <glyph glyph-name="uni0445" unicode="&#x445;" horiz-adv-x="545" 
d="M132 510l140 -190l140 190h123l-202 -273l206 -277h-123l-144 194l-143 -194h-123l204 277l-201 273h123z" />
    <glyph glyph-name="uni0446" unicode="&#x446;" horiz-adv-x="652" 
d="M175 510v-451h294v451h110v-451h51l-1 -211h-75l-26 112h-463v550h110z" />
    <glyph glyph-name="uni0447" unicode="&#x447;" horiz-adv-x="615" 
d="M157 510v-181q-1 -27 7 -52q8 -23 24 -40q19 -19 45 -26q23 -7 48 -6q45 -1 89 11q37 11 69 33v261h110v-550h-110v199q-37 -22 -79 -32q-50 -13 -102 -12q-41 -1 -81 10q-42 12 -75 42q-29 29 -42 67q-14 41 -13 85v191h110z" />
    <glyph glyph-name="uni0448" unicode="&#x448;" horiz-adv-x="896" 
d="M175 510v-461h218v461h110v-461h218v461h110v-550h-766v550h110z" />
    <glyph glyph-name="uni0449" unicode="&#x449;" horiz-adv-x="904" 
d="M175 510v-461h218v461h110v-461h218v461h110v-461h51l-2 -201h-74l-26 112h-715v550h110z" />
    <glyph glyph-name="uni044A" unicode="&#x44a;" horiz-adv-x="737" 
d="M313 510v-190h135q47 -1 94 -9q48 -10 88 -37q31 -23 48 -59q14 -37 15 -76q-1 -43 -17 -81q-19 -36 -52 -58q-42 -23 -89 -32q-46 -8 -92 -8h-240v461h-197v89h307zM313 49h118q33 -1 67 4q26 4 49 16q19 12 29 32q6 18 7 38q-1 18 -7 36q-10 21 -29 33q-23 12 -49 17
q-34 5 -67 5h-118v-181z" />
    <glyph glyph-name="uni044B" unicode="&#x44b;" horiz-adv-x="820" 
d="M175 510v-190h135q47 -1 94 -9q48 -10 88 -37q31 -23 48 -59q14 -37 15 -76q-1 -43 -17 -81q-19 -36 -52 -58q-42 -23 -89 -32q-46 -8 -92 -8h-240v550h110zM754 510v-551h-109v551h109zM175 49h118q33 -1 67 4q26 4 49 16q19 12 29 32q6 18 7 38q-1 18 -7 36
q-10 21 -29 33q-23 12 -49 17q-34 5 -67 5h-118v-181z" />
    <glyph glyph-name="uni044C" unicode="&#x44c;" horiz-adv-x="599" 
d="M175 510v-190h135q47 -1 94 -9q48 -10 88 -37q31 -23 48 -59q14 -37 15 -76q-1 -43 -17 -81q-19 -36 -52 -58q-42 -23 -89 -32q-46 -8 -92 -8h-240v550h110zM175 49h118q33 -1 67 4q26 4 49 16q19 12 29 32q6 18 7 38q-1 18 -7 36q-10 21 -29 33q-23 12 -49 17
q-34 5 -67 5h-118v-181z" />
    <glyph glyph-name="uni044D" unicode="&#x44d;" horiz-adv-x="595" 
d="M47 385q26 63 83 100q36 22 77 32q37 8 75 9q48 -1 94 -15q54 -19 95 -59q39 -42 59 -96q20 -59 20 -121q-1 -62 -21 -121q-20 -54 -59 -96q-40 -41 -94 -60q-45 -15 -91 -16q-38 1 -75 8q-42 10 -78 31q-62 38 -92 105l109 16q20 -32 52 -51q39 -21 84 -20q56 0 97 38
q22 23 35 52q14 32 20 68h-223v90h223q-6 35 -21 68q-13 29 -36 51q-42 37 -98 38q-42 0 -79 -18q-30 -18 -47 -47l-109 14v0z" />
    <glyph glyph-name="uni044E" unicode="&#x44e;" horiz-adv-x="867" 
d="M175 510v-229h123q6 51 27 99q21 46 57 81q39 35 89 51q43 12 88 13q49 -1 97 -16q54 -19 94 -61q37 -42 55 -96q17 -57 18 -117q-1 -62 -18 -120q-18 -54 -56 -97q-39 -41 -94 -60q-47 -15 -96 -16q-45 1 -88 13q-50 16 -88 50q-37 35 -58 80q-21 49 -26 102h-124v-227
h-110v550h110zM406 235q-1 -44 11 -86q10 -36 34 -65q43 -48 108 -47q27 0 54 8q32 13 55 38q23 29 33 65q11 42 12 87q-1 33 -7 66q-9 37 -30 69q-44 59 -117 60q-35 -1 -66 -16q-30 -16 -50 -44q-22 -32 -30 -70q-7 -32 -7 -65z" />
    <glyph glyph-name="uni044F" unicode="&#x44f;" horiz-adv-x="602" 
d="M28 -40q16 26 25 54q10 38 13 77q2 49 33 86q31 32 76 41v1q-49 11 -83 46q-34 37 -35 88q-1 39 16 75q13 23 35 40q36 23 79 31q59 11 120 11h229v-550h-109v212h-125q-27 0 -52 -6q-22 -5 -41 -17q-33 -25 -34 -67q-3 -37 -11 -74q-7 -24 -20 -48h-116zM172 342
q0 -38 31 -58q22 -12 46 -17q33 -6 66 -5h112v159h-107q-36 0 -70 -5q-25 -3 -47 -14q-18 -10 -26 -28q-6 -16 -5 -32z" />
    <glyph glyph-name="uni0451" unicode="&#x451;" horiz-adv-x="611" 
d="M46 233q0 59 18 117q18 53 55 96q39 43 93 63q46 15 95 16q48 -1 94 -15q53 -19 92 -60q36 -40 54 -92q17 -56 18 -113v-48h-410q-1 -36 11 -69q11 -31 34 -54q48 -43 113 -42q45 -1 86 20q40 22 63 62l100 -16q-33 -77 -103 -120q-37 -20 -77 -29q-35 -6 -70 -7
q-50 1 -97 15q-55 19 -95 59q-38 42 -56 96q-19 59 -18 121zM455 281q-1 62 -43 109q-43 44 -105 45q-63 -1 -107 -44q-43 -47 -45 -110h300zM246 717v-102h-131v102h131zM500 717v-102h-131v102h131z" />
    <glyph glyph-name="uni1E3F" unicode="&#x1e3f;" horiz-adv-x="954" 
d="M174 510v-65q36 38 85 60q42 19 89 20q28 0 56 -6q25 -6 47 -19q41 -27 63 -71h1q39 45 93 73q44 21 93 23q42 -1 82 -14q35 -14 60 -42q26 -31 36 -70q8 -35 9 -70v-369h-110v354q1 47 -28 84q-34 37 -84 37q-37 -2 -68 -21q-38 -22 -66 -56v-398h-110v349q-1 22 -6 44
q-7 25 -22 45q-32 36 -79 37q-38 -1 -71 -18q-40 -22 -70 -56v-401h-109v550h109zM548 817h120l-197 -192h-103z" />
    <glyph glyph-name="uni2010" unicode="&#x2010;" 
d="M706 385v-94h-413v94h413z" />
    <glyph glyph-name="endash" unicode="&#x2013;" 
d="M750 385v-94h-500v94h500z" />
    <glyph glyph-name="emdash" unicode="&#x2014;" 
d="M1000 385v-94h-1000v94h1000z" />
    <glyph glyph-name="uni2015" unicode="&#x2015;" 
d="M1000 385v-94h-1000v94h1000z" />
    <glyph glyph-name="uni2016" unicode="&#x2016;" 
d="M431 805v-905h-101v905h101zM669 805v-905h-101v905h101z" />
    <glyph glyph-name="quoteleft" unicode="&#x2018;" 
d="M675 650q0 58 37 104q37 41 90 58v-49q-30 -15 -48 -43q-18 -31 -18 -66h64v-152h-125v148v0z" />
    <glyph glyph-name="quoteright" unicode="&#x2019;" 
d="M197 551q30 14 47 42q19 31 20 67h-64v152h125v-148q-1 -59 -39 -105q-37 -41 -89 -57v49v0z" />
    <glyph glyph-name="quotesinglbase" unicode="&#x201a;" 
d="M198 -149q30 15 47 43q18 31 19 66h-64v151h124v-147q-1 -58 -38 -103q-36 -43 -88 -60v50v0z" />
    <glyph glyph-name="quotedblleft" unicode="&#x201c;" 
d="M676 650q0 58 37 103q36 42 89 59v-49q-30 -15 -48 -43q-18 -31 -18 -66h64v-152h-124v148zM464 650q0 58 37 103q36 42 89 59v-49q-30 -15 -48 -43q-18 -31 -18 -66h64v-152h-124v148z" />
    <glyph glyph-name="quotedblright" unicode="&#x201d;" 
d="M197 551q30 14 47 42q19 31 20 67h-64v152h124v-148q-1 -59 -38 -104q-37 -42 -89 -58v49zM409 551q30 14 47 42q19 31 20 67h-64v152h124v-148q-1 -59 -38 -104q-37 -42 -89 -58v49z" />
    <glyph glyph-name="quotedblbase" unicode="&#x201e;" 
d="M197 -149q30 15 47 43q18 31 19 66h-63v151h123v-147q-1 -58 -38 -103q-36 -43 -88 -60v50zM409 -149q30 15 47 43q18 31 19 66h-63v151h123v-147q-1 -58 -38 -103q-36 -43 -88 -60v50z" />
    <glyph glyph-name="dagger" unicode="&#x2020;" horiz-adv-x="647" 
d="M267 546v164h110v-164h197v-89h-197v-497h-110v497h-194v89h194z" />
    <glyph glyph-name="daggerdbl" unicode="&#x2021;" horiz-adv-x="647" 
d="M377 124v-164h-110v164h-194v89h194v244h-194v89h194v164h110v-164h197v-89h-197v-244h197v-89h-197z" />
    <glyph glyph-name="bullet" unicode="&#x2022;" 
d="M345 350q0 58 39 103q46 49 114 51q67 -2 114 -51q39 -45 40 -103q-2 -68 -51 -114q-45 -39 -103 -39q-68 1 -114 50q-38 44 -39 103z" />
    <glyph glyph-name="twodotenleader" unicode="&#x2025;" 
d="M383 415v-153h-152v153h152zM768 415v-153h-152v153h152z" />
    <glyph glyph-name="ellipsis" unicode="&#x2026;" 
d="M248 416v-153h-152v153h152zM903 416v-153h-152v153h152zM572 416v-153h-152v153h152z" />
    <glyph glyph-name="perthousand" unicode="&#x2030;" horiz-adv-x="1163" 
d="M49 532q0 37 12 72q12 32 35 57q43 43 104 44q60 -1 103 -44q23 -25 36 -57q12 -35 13 -72q-1 -38 -13 -73q-12 -32 -35 -57q-43 -43 -104 -43q-62 0 -105 43q-23 25 -34 57q-13 35 -12 73zM457 132q0 37 12 73q12 32 35 57q43 43 104 44q60 -1 103 -44q22 -26 35 -57
q12 -36 13 -73q-1 -38 -13 -73q-12 -32 -34 -57q-43 -42 -104 -43q-62 1 -105 43q-23 25 -34 57q-13 35 -12 73zM811 132q0 37 12 73q12 32 35 57q43 43 104 44q60 -1 103 -44q22 -26 35 -57q12 -36 13 -73q-1 -38 -13 -73q-12 -32 -35 -57q-43 -42 -103 -43q-62 1 -105 43
q-23 25 -34 57q-13 35 -12 73zM526 702h96l-351 -742h-96zM128 532q-1 -39 23 -69q19 -22 49 -23q29 1 48 23q24 30 24 69q-1 34 -19 62q-20 29 -53 32q-34 -3 -54 -32q-18 -28 -18 -62zM536 132q-1 -38 23 -68q19 -22 49 -23q29 1 48 23q24 30 24 68q-1 34 -19 62
q-20 29 -53 32q-30 -2 -48 -25q-24 -31 -24 -69zM890 132q-1 -38 23 -68q19 -22 49 -23q29 1 48 23q23 30 23 68t-24 69q-18 23 -47 25q-30 -2 -48 -25q-24 -31 -24 -69z" />
    <glyph glyph-name="minute" unicode="&#x2032;" 
d="M195 789h101l-129 -293h-78z" />
    <glyph glyph-name="second" unicode="&#x2033;" 
d="M395 789h102l-129 -293h-79zM195 789h101l-129 -293h-78z" />
    <glyph glyph-name="uni2034" unicode="&#x2034;" 
d="M595 789h102l-129 -293h-79zM195 789h101l-129 -293h-78zM395 789h101l-129 -293h-78z" />
    <glyph glyph-name="uni2035" unicode="&#x2035;" 
d="M296 496h-78l-129 293h101z" />
    <glyph glyph-name="uni2036" unicode="&#x2036;" 
d="M297 496h-79l-129 293h102zM497 496h-78l-129 293h101z" />
    <glyph glyph-name="uni2037" unicode="&#x2037;" 
d="M297 496h-79l-129 293h102zM697 496h-78l-129 293h101zM497 496h-78l-129 293h101z" />
    <glyph glyph-name="guilsinglleft" unicode="&#x2039;" horiz-adv-x="390" 
d="M209 510h100l-106 -262l106 -261h-100l-129 261z" />
    <glyph glyph-name="guilsinglright" unicode="&#x203a;" horiz-adv-x="390" 
d="M180 510l129 -262l-129 -261h-100l107 261l-107 262h100z" />
    <glyph glyph-name="uni203B" unicode="&#x203b;" 
d="M196 687l303 -302l305 303l56 -54l-305 -304q151 -153 305 -304l-56 -54l-305 303l-303 -302l-56 54l304 303l-304 303zM259 390v-117h-117v117h117zM557 691v-118h-116v118h116zM557 88v-117h-116v117h116zM855 390v-117h-115v117h115z" />
    <glyph glyph-name="Euro" unicode="&#x20ac;" horiz-adv-x="650" 
d="M5 466h80q14 56 43 106q30 49 74 84q48 35 105 51q50 12 102 13q63 1 123 -17q56 -19 101 -58l-55 -86q-31 29 -70 45q-48 18 -99 18q-77 0 -138 -46q-52 -44 -73 -110h318l-23 -80h-312q-3 -27 -2 -54q-1 -30 4 -58h257l-24 -80h-214q25 -74 88 -119q54 -36 119 -35
q52 -1 101 17q39 15 68 46l55 -86q-41 -36 -92 -54q-65 -21 -132 -21q-50 1 -98 13q-57 15 -104 49q-45 35 -75 82q-31 51 -46 108h-113l25 80h74q-4 28 -3 58q0 27 2 54h-90z" />
    <glyph glyph-name="uni2103" unicode="&#x2103;" 
d="M56 677q1 51 38 87q33 30 78 31q44 -2 77 -31q37 -36 39 -87q-1 -45 -30 -79q-35 -37 -86 -37q-52 0 -87 37q-29 34 -29 79zM104 677q0 -26 17 -45q21 -22 51 -22t51 22q17 19 18 45q-1 29 -23 50q-20 17 -46 18q-26 -1 -46 -18q-22 -21 -22 -50zM293 336q-1 80 21 158
q22 72 69 130q50 56 121 83q62 20 128 21q48 -1 94 -11q54 -14 100 -44q81 -57 113 -150l-114 -18q-23 53 -69 87q-57 37 -124 36q-52 0 -100 -22q-44 -22 -73 -63q-32 -48 -44 -104q-11 -51 -10 -103q0 -51 10 -100q12 -56 44 -104q29 -42 74 -67q46 -23 99 -23
q62 -2 116 29q57 37 83 101l112 -17q-18 -48 -47 -90q-30 -41 -71 -69q-46 -30 -100 -43q-46 -10 -93 -11q-64 1 -124 21q-70 26 -121 81q-48 58 -71 130q-24 79 -23 162z" />
    <glyph glyph-name="uni2105" unicode="&#x2105;" horiz-adv-x="1125" 
d="M620 170q0 43 15 83q16 39 46 68q32 29 74 42q34 10 71 11q35 -1 70 -11q40 -13 72 -42q30 -29 46 -67q15 -41 16 -84q-1 -44 -16 -84q-17 -39 -46 -68q-32 -27 -73 -41q-34 -10 -69 -11q-37 1 -71 11q-41 13 -73 41q-30 29 -46 68q-16 40 -16 84zM718 735h96l-420 -775
h-97zM94 523q-1 40 12 78t41 68q28 29 66 44q38 14 79 14q65 0 117 -39q45 -34 64 -86l-93 -13q-28 53 -88 55q-25 -1 -47 -10q-18 -8 -29 -22q-15 -18 -22 -40q-7 -24 -6 -49q-1 -28 8 -54q7 -23 24 -41q12 -14 29 -20q19 -8 41 -7q64 0 94 58l92 -12q-20 -57 -68 -92
q-53 -38 -118 -37q-85 0 -144 60q-27 30 -40 68q-13 37 -12 77zM714 170q-1 -23 5 -45q6 -24 22 -43q15 -17 36 -25q24 -9 49 -8q24 0 46 8q21 9 36 25q16 20 22 43q5 22 6 45q-1 22 -6 44q-6 24 -22 43q-15 17 -36 25q-23 8 -46 9q-25 -1 -48 -9q-21 -8 -36 -25
q-16 -19 -23 -43q-5 -22 -5 -44z" />
    <glyph glyph-name="uni2109" unicode="&#x2109;" 
d="M934 710v-100h-419v-231h378v-100h-378v-319h-112v750h531zM65 677q1 51 37 87q34 30 79 31q44 -2 77 -31q37 -36 39 -87q-1 -45 -30 -79q-35 -37 -86 -37q-45 0 -79 29q-37 35 -37 87zM112 677q0 -26 17 -45q21 -22 52 -22q29 0 50 22q17 19 18 45q-1 29 -23 50
q-20 17 -45 18q-27 -1 -47 -18q-22 -21 -22 -50z" />
    <glyph glyph-name="uni2116" unicode="&#x2116;" 
d="M126 710l306 -571h2v571h79v-750h-84l-306 570l-1 1v-571h-80v750h84zM568 360q0 47 13 92q14 42 41 77q29 33 69 49q34 12 71 13q35 -1 69 -13q41 -16 70 -49q28 -34 41 -76q14 -46 15 -93q-1 -50 -14 -97q-13 -42 -41 -77q-29 -33 -70 -49q-34 -12 -70 -12
q-37 0 -71 12q-41 17 -69 51q-28 35 -41 78q-13 46 -13 94zM646 360q-1 -35 8 -68q8 -28 26 -51q32 -38 82 -38q50 -1 82 37q18 23 26 51q8 34 9 69q-1 34 -10 66q-8 28 -26 50q-33 36 -81 37q-49 -1 -80 -38q-18 -22 -27 -50q-10 -32 -9 -65zM952 37v-77h-379v77h379z" />
    <glyph glyph-name="uni2121" unicode="&#x2121;" 
d="M591 714v-33h-130v-59h116v-32h-116v-64h131v-33h-167v221h166zM376 714v-34h-83v-187h-36v187h-79v34h198zM687 713v-187h135v-33h-171v220h36z" />
    <glyph glyph-name="trademark" unicode="&#x2122;" horiz-adv-x="852" 
d="M446 710l120 -300l116 300h87v-375h-61l-1 289l-110 -289h-63l-113 289v-289h-61v375h86zM309 710v-54h-121v-321h-61v321h-121v54h303z" />
    <glyph glyph-name="uni2160" unicode="&#x2160;" 
d="M555 710v-750h-110v750h110z" />
    <glyph glyph-name="uni2161" unicode="&#x2161;" 
d="M681 710v-750h-110v750h110zM428 710v-750h-109v750h109z" />
    <glyph glyph-name="uni2162" unicode="&#x2162;" 
d="M555 710v-750h-110v750h110zM787 710v-750h-110v750h110zM322 710v-750h-109v750h109z" />
    <glyph glyph-name="uni2163" unicode="&#x2163;" 
d="M396 710l186 -601h2l187 601h115l-246 -750h-114l-245 750h115zM222 710v-750h-110v750h110z" />
    <glyph glyph-name="uni2164" unicode="&#x2164;" 
d="M282 710l216 -611h2l217 611h121l-277 -750h-124l-276 750h121z" />
    <glyph glyph-name="uni2165" unicode="&#x2165;" 
d="M225 710l186 -601h2l187 601h115l-246 -750h-114l-245 750h115zM889 710v-750h-110v750h110z" />
    <glyph glyph-name="uni2166" unicode="&#x2166;" 
d="M185 710l142 -611h2l143 611h101l-195 -750h-100l-194 750h101zM915 710v-750h-95v750h95zM735 710v-750h-95v750h95z" />
    <glyph glyph-name="uni2167" unicode="&#x2167;" 
d="M155 710l120 -611h1l119 611h77l-153 -750h-88l-153 750h77zM772 710v-750h-72v750h72zM921 710v-750h-72v750h72zM623 710v-750h-71v750h71z" />
    <glyph glyph-name="uni2168" unicode="&#x2168;" 
d="M412 710l175 -279l175 279h118l-234 -373l237 -377h-117l-179 284l-178 -284h-117l236 378l-233 372h117zM215 710v-750h-100v750h100z" />
    <glyph glyph-name="uni2169" unicode="&#x2169;" 
d="M312 710l187 -275l188 275h130l-253 -369l261 -381h-130l-196 286l-195 -286h-129l260 381l-252 369h129z" />
    <glyph glyph-name="uni216A" unicode="&#x216a;" 
d="M236 710l175 -279l175 279h117l-234 -372l238 -378h-118l-178 284l-178 -284h-118l237 378l-233 372h117zM883 710v-750h-100v750h100z" />
    <glyph glyph-name="uni216B" unicode="&#x216b;" 
d="M183 710l153 -282l154 282h98l-203 -372l206 -378h-97l-157 289l-158 -289h-97l206 378l-202 372h97zM745 710v-750h-89v750h89zM917 710v-750h-89v750h89z" />
    <glyph glyph-name="uni2170" unicode="&#x2170;" 
d="M555 510v-550h-110v550h110zM555 710v-117h-110v117h110z" />
    <glyph glyph-name="uni2171" unicode="&#x2171;" 
d="M664 510v-550h-110v550h110zM445 510v-550h-109v550h109zM664 710v-117h-110v117h110zM445 710v-117h-109v117h109z" />
    <glyph glyph-name="uni2172" unicode="&#x2172;" 
d="M783 510v-550h-110v550h110zM553 510v-550h-110v550h110zM326 510v-550h-109v550h109zM553 710v-117h-110v117h110zM783 710v-117h-110v117h110zM326 710v-117h-109v117h109z" />
    <glyph glyph-name="uni2173" unicode="&#x2173;" 
d="M433 510l146 -446h2l147 446h120l-200 -550h-135l-199 550h119zM260 510v-550h-109v550h109zM260 710v-117h-109v117h109z" />
    <glyph glyph-name="uni2174" unicode="&#x2174;" 
d="M343 510l156 -446h1l156 446h120l-209 -550h-135l-209 550h120z" />
    <glyph glyph-name="uni2175" unicode="&#x2175;" 
d="M270 510l146 -446h2l147 446h119l-200 -550h-134l-199 550h119zM848 510v-550h-110v550h110zM848 710v-117h-110v117h110z" />
    <glyph glyph-name="uni2176" unicode="&#x2176;" 
d="M204 510l124 -451h1l121 451h95l-160 -550h-113l-164 550h96zM707 510v-550h-93v550h93zM891 510v-550h-93v550h93zM891 710v-117h-93v117h93zM707 710v-117h-93v117h93z" />
    <glyph glyph-name="uni2177" unicode="&#x2177;" 
d="M170 510l106 -451h1l104 451h79l-135 -550h-96l-140 550h81zM598 510v-550h-79v550h79zM909 510v-550h-78v550h78zM753 510v-550h-78v550h78zM598 710v-117h-79v117h79zM909 710v-117h-78v117h78zM753 710v-117h-78v117h78z" />
    <glyph glyph-name="uni2178" unicode="&#x2178;" 
d="M461 510l133 -187l133 187h122l-194 -273l198 -277h-122l-137 191l-136 -191h-123l197 277l-194 273h123zM255 510v-550h-109v550h109zM255 710v-117h-109v117h109z" />
    <glyph glyph-name="uni2179" unicode="&#x2179;" 
d="M359 510l140 -190l141 190h122l-202 -273l206 -277h-122l-145 195l-143 -195h-123l205 277l-201 273h122z" />
    <glyph glyph-name="arrowleft" unicode="&#x2190;" 
d="M275 571h109l-182 -184v-2h751v-90h-751v-2l182 -182h-109l-229 229z" />
    <glyph glyph-name="arrowup" unicode="&#x2191;" 
d="M499 775l231 -229v-109l-184 182h-2v-750h-90v750h-2l-182 -182v109z" />
    <glyph glyph-name="arrowright" unicode="&#x2192;" 
d="M797 385v2l-182 184h109l229 -231l-229 -229h-109l182 182v2h-751v90h751z" />
    <glyph glyph-name="arrowdown" unicode="&#x2193;" 
d="M452 24h2v751h90v-751h2l184 182v-109l-231 -228l-229 228v109z" />
    <glyph glyph-name="uni2196" unicode="&#x2196;" 
d="M486 641l78 -80h-259l-2 -1l535 -527l-64 -63l-534 526l-1 -1v-257l-78 77v326h325z" />
    <glyph glyph-name="uni2197" unicode="&#x2197;" 
d="M696 560l-2 2l-259 2l78 77h325v-326l-78 -77v257l-1 1l-534 -526l-64 63z" />
    <glyph glyph-name="uni2198" unicode="&#x2198;" 
d="M225 641l534 -527l1 1l-2 258l78 -77l2 -324l-325 -2l-78 77l259 2l2 1l-535 527z" />
    <glyph glyph-name="uni2199" unicode="&#x2199;" 
d="M163 296l78 77l-2 -258l1 -1l534 527l64 -64l-535 -527l2 -1l259 -2l-78 -77l-325 2z" />
    <glyph glyph-name="element" unicode="&#x2208;" 
d="M163 341q0 55 16 109q20 63 65 111q46 45 106 67q65 24 135 24h351v-89h-351q-41 -1 -81 -11q-38 -11 -70 -34q-33 -26 -51 -63q-16 -33 -20 -69h573v-90h-572q4 -37 19 -70q19 -38 52 -64q32 -23 70 -33q39 -11 80 -10h351v-90h-351q-70 -1 -136 23q-60 22 -105 68
q-45 48 -66 110q-15 54 -15 111z" />
    <glyph glyph-name="product" unicode="&#x220f;" 
d="M815 710v-750h-114v651h-403v-651h-114v750h631z" />
    <glyph glyph-name="summation" unicode="&#x2211;" 
d="M500 338l-297 292v80h573v-98h-412l245 -243v-65l-249 -245h441v-99h-603v80z" />
    <glyph glyph-name="uni2215" unicode="&#x2215;" 
d="M649 697l104 -5l-402 -728l-105 6z" />
    <glyph glyph-name="radical" unicode="&#x221a;" 
d="M195 513l271 -491l460 798h75v-68l-512 -889h-56l-287 518q-53 -27 -105 -52l-42 75z" />
    <glyph glyph-name="proportional" unicode="&#x221d;" 
d="M120 339q0 37 10 72q13 43 42 77q62 66 153 67q55 1 102 -27q28 -19 51 -43q29 -32 53 -67q24 35 54 67q18 18 40 34q51 36 115 36q83 1 140 -59l-42 -76q-41 43 -100 42q-47 -1 -85 -30q-47 -39 -79 -92q31 -53 78 -92q38 -30 86 -30q59 -3 100 41l42 -76
q-24 -28 -57 -44q-41 -17 -84 -15q-58 -1 -107 31q-31 21 -56 49q-25 27 -45 58q-25 -36 -53 -68q-23 -25 -52 -44q-47 -27 -101 -26q-91 0 -153 66q-29 34 -42 77q-10 35 -10 72zM214 339q-1 -48 29 -85q35 -37 87 -36q45 0 80 29q45 40 76 93q-31 51 -75 91q-35 30 -81 31
q-51 0 -86 -36q-31 -38 -30 -87z" />
    <glyph glyph-name="infinity" unicode="&#x221e;" 
d="M85 338q0 40 11 79q15 45 47 79q61 62 148 64q59 0 109 -32q31 -22 56 -51q23 -28 43 -59q18 31 42 59q24 29 56 51q51 32 111 32q41 -1 80 -16q39 -16 69 -46q31 -34 45 -78q11 -40 12 -80q-1 -42 -13 -81q-14 -44 -47 -77q-30 -29 -69 -44q-39 -14 -79 -14
q-59 0 -106 34q-31 22 -56 51q-25 27 -45 58q-21 -31 -45 -58q-25 -29 -57 -51q-49 -34 -107 -34q-42 0 -81 14q-39 16 -68 45q-31 33 -45 77q-11 38 -11 78zM180 339q-2 -48 27 -86q35 -36 86 -35q46 0 83 29q47 40 80 93q-33 51 -80 90q-38 30 -85 31q-50 0 -83 -36
q-30 -38 -28 -86zM543 340q32 -53 79 -92q38 -30 86 -30q49 -1 83 35q30 38 29 87q1 47 -28 85q-34 38 -85 36q-43 0 -79 -23q-22 -16 -40 -37q-24 -30 -45 -61z" />
    <glyph glyph-name="orthogonal" unicode="&#x221f;" 
d="M251 659v-552h607v-101h-718v653h111z" />
    <glyph glyph-name="angle" unicode="&#x2220;" 
d="M611 671l97 -53l-374 -511h540v-101h-749z" />
    <glyph glyph-name="uni2223" unicode="&#x2223;" 
d="M555 803v-990h-111v990h111z" />
    <glyph glyph-name="uni2225" unicode="&#x2225;" 
d="M842 795h104l-492 -969h-104zM545 795h104l-492 -969h-104z" />
    <glyph glyph-name="logicaland" unicode="&#x2227;" 
d="M437 710h124l292 -750h-120l-233 610h-2l-232 -610h-120z" />
    <glyph glyph-name="logicalor" unicode="&#x2228;" 
d="M266 710l232 -611h2l233 611h122l-294 -750h-124l-292 750h121z" />
    <glyph glyph-name="intersection" unicode="&#x2229;" 
d="M197 397q-1 57 14 113q16 62 58 111q42 45 99 67q64 22 132 22q66 0 129 -22q57 -22 99 -66q42 -49 59 -112q14 -56 15 -113v-455h-112v452q0 48 -14 95q-13 40 -40 70q-29 29 -68 41q-33 9 -68 10q-37 -1 -71 -11q-40 -13 -68 -43q-28 -31 -40 -70q-13 -46 -12 -92v-452
h-112v455v0z" />
    <glyph glyph-name="union" unicode="&#x222a;" 
d="M309 710v-452q-1 -47 12 -93q12 -39 40 -70q28 -30 68 -43q34 -11 71 -10q35 0 68 9q39 12 68 41q27 30 40 70q14 47 14 96v452h112v-455q-1 -58 -15 -114q-17 -63 -59 -112q-42 -43 -99 -65q-63 -22 -129 -22q-68 0 -132 22q-57 22 -99 66q-42 49 -58 111
q-15 56 -14 114v455h112z" />
    <glyph glyph-name="integral" unicode="&#x222b;" 
d="M317 -17q30 0 61 6q24 6 42 23q19 23 24 52q5 31 6 63v457q-1 45 9 89q11 47 43 84q31 33 75 47q51 15 106 15v-87q-31 0 -61 -7q-25 -6 -43 -24q-19 -23 -25 -52q-6 -31 -5 -62v-457q-1 -46 -10 -91q-12 -46 -43 -82q-32 -33 -75 -46q-51 -15 -104 -15v87v0z" />
    <glyph glyph-name="uni222E" unicode="&#x222e;" 
d="M272 356q0 74 44 135q51 67 134 87v5q-1 45 9 89q11 47 43 84q31 33 75 47q51 15 106 15v-87q-31 0 -61 -7q-25 -6 -43 -24q-19 -23 -25 -52q-6 -31 -5 -62v-7q82 -20 133 -88q45 -60 46 -135q-1 -76 -46 -137q-51 -67 -133 -86v-4q-1 -46 -10 -91q-12 -46 -43 -82
q-32 -33 -75 -46q-51 -15 -104 -15v87q30 0 61 6q24 6 42 23q19 23 24 52q5 31 6 63v7q-83 19 -134 87q-44 61 -44 136zM655 356q-1 47 -27 86q-30 43 -79 61v-294q49 17 79 60q26 39 27 87zM345 356q0 -47 25 -86q30 -44 80 -61v293q-50 -17 -80 -61q-25 -39 -25 -85z" />
    <glyph glyph-name="therefore" unicode="&#x2234;" 
d="M434 516q0 28 21 49q18 16 44 16q25 -1 44 -17q21 -20 22 -48q-1 -30 -22 -49q-19 -17 -44 -17t-44 17q-21 20 -21 49zM155 46q0 28 21 49q18 16 44 16q25 -1 44 -17q21 -20 22 -48q-1 -25 -18 -44q-20 -20 -48 -21q-25 1 -44 17q-21 19 -21 48zM714 46q0 25 16 43
q20 21 49 22q29 -1 49 -22q16 -18 17 -43q-1 -25 -18 -44q-20 -20 -48 -21q-25 1 -44 17q-21 19 -21 48z" />
    <glyph glyph-name="uni2235" unicode="&#x2235;" 
d="M434 46q0 28 21 48q19 16 44 17q28 -1 48 -22q17 -19 18 -43q-1 -29 -22 -49q-18 -16 -43 -16q-30 1 -50 21q-16 18 -16 44zM155 516q0 28 21 48q19 16 44 17q28 -1 48 -22q17 -19 18 -43q-1 -30 -22 -50q-18 -16 -43 -16q-26 0 -45 16q-21 20 -21 50zM714 516
q0 28 21 48q19 16 44 17q28 -1 48 -22q17 -19 18 -43q-1 -30 -22 -50q-18 -16 -43 -16q-30 1 -50 21q-16 19 -16 45z" />
    <glyph glyph-name="uni2236" unicode="&#x2236;" 
d="M434 516q0 28 21 49q18 16 44 16q29 -1 49 -22q16 -18 17 -43q-1 -30 -22 -49q-19 -17 -44 -17t-44 17q-21 20 -21 49zM434 46q0 25 16 43q20 21 50 22q28 -1 48 -22q16 -19 17 -43q-1 -29 -22 -48q-19 -16 -43 -17q-29 1 -49 21q-17 19 -17 44z" />
    <glyph glyph-name="uni2237" unicode="&#x2237;" 
d="M199 516q0 29 21 49q19 16 45 16q24 -1 43 -17q21 -20 22 -48q-1 -29 -22 -49q-19 -17 -43 -17q-30 0 -49 21q-17 19 -17 45zM200 46q0 25 17 44q19 21 48 21q28 -1 48 -22q17 -18 18 -43q-1 -25 -18 -44q-20 -20 -48 -21q-25 1 -44 17q-21 19 -21 48zM669 516
q0 25 17 43q19 21 48 22q28 -1 48 -22q17 -18 18 -43q-1 -30 -22 -49q-19 -17 -44 -17t-44 17q-21 20 -21 49zM669 46q0 25 17 44q20 21 49 21q28 -1 48 -22q16 -18 17 -43q-1 -29 -22 -48q-19 -16 -43 -17q-29 1 -49 21q-17 19 -17 44z" />
    <glyph glyph-name="uni223D" unicode="&#x223d;" 
d="M192 427q2 -46 12 -91q8 -34 27 -62q17 -23 43 -34q22 -8 45 -7q36 1 68 20q48 28 88 69q46 46 103 79q45 25 97 26q94 -2 156 -74q36 -43 55 -96q20 -61 24 -124h-106q-3 34 -11 67q-9 37 -29 69q-16 25 -41 42q-23 13 -48 15q-35 -1 -64 -19q-44 -30 -82 -66
q-53 -50 -116 -84q-44 -23 -94 -24q-41 0 -80 12q-47 17 -80 54q-34 42 -50 95q-18 65 -20 133h103z" />
    <glyph glyph-name="approxequal" unicode="&#x2248;" 
d="M99 392q34 58 95 88q64 29 135 28q97 -2 179 -55q41 -26 87 -41q37 -11 76 -11q57 0 107 27q47 24 78 67l44 -83q-35 -58 -96 -86q-65 -27 -134 -25q-48 0 -94 14q-44 15 -83 40q-43 25 -90 41q-37 11 -76 12q-57 -1 -107 -28q-47 -25 -77 -67zM99 175q35 59 95 91
q64 32 135 31q96 -3 179 -55q41 -26 87 -41q37 -12 76 -12q57 0 107 27q47 25 78 68l44 -81q-35 -58 -96 -88q-64 -28 -134 -26q-42 0 -82 11q-51 15 -95 43q-43 26 -90 41q-37 12 -76 13q-57 -1 -107 -28q-47 -25 -77 -68z" />
    <glyph glyph-name="uni224C" unicode="&#x224c;" 
d="M197 667q2 -46 12 -90q8 -33 27 -60q12 -17 30 -27q27 -13 58 -12q17 0 33 7q22 8 42 20q44 27 81 64q45 45 102 75q44 22 93 23q93 -2 155 -72q36 -43 55 -96q21 -60 25 -124h-111q-3 34 -11 67q-10 36 -29 67q-17 25 -41 41q-23 13 -48 14q-34 -2 -62 -20
q-45 -30 -84 -67q-51 -49 -113 -81q-44 -21 -92 -21q-42 0 -81 12q-47 16 -80 53q-34 42 -49 94q-18 65 -20 133h108zM895 277v-90h-788v90h788zM895 97v-90h-788v90h788z" />
    <glyph glyph-name="uni2252" unicode="&#x2252;" 
d="M893 534v-90h-787v90h787zM893 321v-90h-787v90h787zM243 687q0 25 16 44q20 20 49 22q25 0 45 -17q21 -20 21 -49q-1 -26 -17 -44q-20 -21 -49 -21q-26 0 -44 16q-21 20 -21 49zM625 77q-1 24 16 43q20 20 50 22q25 1 45 -16q20 -21 20 -49q-1 -26 -17 -45
q-20 -20 -48 -20q-29 0 -50 20q-16 19 -16 45z" />
    <glyph glyph-name="notequal" unicode="&#x2260;" 
d="M497 528l63 208h99l-63 -208h297v-90h-325l-33 -111h358v-90h-386l-63 -210h-99l63 210h-302v90h330l33 111h-363v90h391z" />
    <glyph glyph-name="equivalence" unicode="&#x2261;" 
d="M893 359v-90h-787v90h787zM893 572v-90h-787v90h787zM893 146v-90h-787v90h787z" />
    <glyph glyph-name="lessequal" unicode="&#x2264;" 
d="M887 720v-95l-645 -190v-2l645 -190v-95l-775 241v90zM112 286l775 -247v-95l-775 247v95z" />
    <glyph glyph-name="greaterequal" unicode="&#x2265;" 
d="M887 479v-90l-775 -241v95l644 190v2l-644 190v95zM887 286v-95l-775 -247v95z" />
    <glyph glyph-name="uni2266" unicode="&#x2266;" 
d="M887 746v-90l-620 -155v-2l620 -155v-90l-775 203v85zM887 198v-85h-775v85h775zM887 28v-84h-775v84h775z" />
    <glyph glyph-name="uni2267" unicode="&#x2267;" 
d="M884 542v-85l-775 -203v90l620 155v2l-620 155v90zM884 198v-85h-775v85h775zM884 28v-84h-775v84h775z" />
    <glyph glyph-name="uni226E" unicode="&#x226e;" 
d="M551 517l63 174h98l-50 -140l225 71v-95l-262 -78l-74 -206l336 -99v-95l-365 114l-61 -171h-99l71 198l-321 101v89zM242 335l220 -65l53 147l-273 -81v-1z" />
    <glyph glyph-name="uni226F" unicode="&#x226f;" 
d="M385 691l62 -174l440 -137v-89l-323 -101l72 -198h-99l-62 170l-363 -113v95l334 99l-74 206l-260 78v95l224 -70l-50 139h99zM483 416l53 -146l220 65v1z" />
    <glyph glyph-name="circleplus" unicode="&#x2295;" 
d="M59 325q-1 73 21 143q30 88 93 156q62 66 146 104q86 37 181 38q71 -1 139 -24q87 -31 156 -92q67 -63 106 -146q38 -86 39 -179q-2 -94 -39 -180q-38 -82 -104 -145q-68 -61 -155 -91q-67 -23 -138 -24q-93 2 -178 38q-83 38 -147 102q-63 69 -95 156q-24 70 -25 144z
M90 325q1 -69 23 -134q31 -82 92 -145q60 -60 139 -95q78 -33 164 -35q84 2 161 37q76 36 133 97q57 64 86 145q20 63 22 130q-1 88 -37 169q-36 77 -99 135q-118 103 -274 106q-67 -2 -130 -22q-82 -28 -146 -85q-62 -58 -99 -136q-35 -80 -35 -167zM453 371v261h90v-261
h250v-90h-250v-243h-90v243h-249v90h249z" />
    <glyph glyph-name="uni2299" unicode="&#x2299;" 
d="M59 325q-1 73 21 143q30 88 93 156q62 66 146 104q86 37 181 38q71 -1 139 -24q87 -31 156 -92q67 -63 106 -146q38 -86 39 -179q-2 -94 -39 -180q-38 -82 -104 -145q-68 -61 -155 -91q-67 -23 -138 -24q-93 2 -178 38q-83 38 -147 102q-63 69 -95 156q-24 70 -25 144z
M90 325q1 -69 23 -134q31 -82 92 -145q60 -60 139 -95q78 -33 164 -35q84 2 161 37q76 36 133 97q57 64 86 145q20 63 22 130q-1 88 -37 169q-36 77 -99 135q-118 103 -274 106q-67 -2 -130 -22q-82 -28 -146 -85q-62 -58 -99 -136q-35 -80 -35 -167zM433 323q-1 28 20 49
q20 16 46 17q25 0 44 -17q21 -20 21 -49q-1 -25 -17 -44q-20 -21 -48 -21q-30 0 -50 21q-16 18 -16 44z" />
    <glyph glyph-name="perpendicular" unicode="&#x22a5;" 
d="M455 30v685h90v-685h345v-89h-780v89h345z" />
    <glyph glyph-name="uni22BF" unicode="&#x22bf;" 
d="M878 767v-823h-756zM788 33v511l-459 -511h459z" />
    <glyph glyph-name="uni2312" unicode="&#x2312;" 
d="M0 418q83 78 192 115q70 24 143 36q82 12 165 12q82 -1 163 -12q73 -12 143 -36q109 -37 193 -115l-19 -77q-87 76 -198 110q-67 20 -136 30q-73 10 -146 10q-75 -1 -148 -10q-70 -9 -136 -30q-111 -34 -197 -110z" />
    <glyph glyph-name="uni2460" unicode="&#x2460;" 
d="M35 335q0 100 41 191q41 88 112 153q73 65 164 97q72 23 148 24q75 -1 146 -24q92 -32 165 -97q71 -65 111 -153q41 -91 42 -191q-1 -101 -42 -192q-40 -88 -111 -152q-73 -65 -165 -97q-71 -23 -146 -24q-76 1 -148 24q-91 32 -164 97q-71 64 -112 152q-41 91 -41 192z
M69 335q0 -94 38 -179q38 -81 104 -142q67 -59 152 -88q67 -22 137 -23q92 1 177 39q81 38 142 103q60 68 89 153q21 67 23 137q-2 69 -23 135q-29 85 -89 153q-61 66 -142 104q-85 38 -177 39q-70 -1 -137 -23q-85 -29 -152 -89q-66 -61 -104 -142q-38 -85 -38 -177z
M471 636h85v-602h-91v499l-112 -85l-32 76z" />
    <glyph glyph-name="uni2461" unicode="&#x2461;" 
d="M287 491q17 79 81 128q59 40 132 40q36 -1 72 -9q40 -10 72 -35q28 -24 43 -57q14 -36 15 -74q0 -55 -28 -102q-17 -28 -40 -51q-27 -28 -57 -52q-27 -21 -55 -41q-36 -26 -69 -55q-22 -20 -39 -42h295v-82h-426v55q21 48 57 87q55 55 122 98q34 24 67 51q26 20 47 45
q32 36 33 85q0 42 -31 71q-34 27 -78 26q-44 0 -78 -27q-33 -29 -44 -71zM68 335q0 -94 38 -179q38 -81 104 -142q68 -59 153 -88q67 -22 137 -23q92 1 177 39q81 38 142 103q60 68 89 153q21 67 23 137q-2 69 -23 135q-29 85 -89 153q-61 66 -142 104q-85 38 -177 39
q-70 -2 -137 -23q-85 -29 -153 -89q-66 -61 -104 -142q-38 -85 -38 -177zM35 335q0 100 41 191q41 88 112 153q73 65 164 97q72 23 148 24q75 -1 146 -24q92 -32 164 -97q71 -65 112 -153q41 -91 42 -191q-1 -101 -42 -192q-41 -88 -112 -152q-72 -65 -164 -97
q-71 -23 -146 -24q-76 1 -148 24q-91 32 -164 97q-71 64 -112 152q-41 91 -41 192z" />
    <glyph glyph-name="uni2462" unicode="&#x2462;" 
d="M35 335q0 100 41 191q41 88 112 153q73 65 164 97q72 23 148 24q75 -1 146 -24q92 -32 164 -97q71 -65 112 -153q41 -91 42 -191q-1 -101 -42 -192q-41 -88 -112 -152q-72 -65 -164 -97q-71 -23 -146 -24q-76 1 -148 24q-91 32 -164 97q-71 64 -112 152q-41 91 -41 192z
M68 335q0 -70 22 -137q29 -85 89 -152q61 -65 142 -103q85 -38 179 -39q92 1 177 39q81 38 142 103q60 67 89 152q22 67 23 137q-2 69 -23 135q-29 85 -89 153q-61 66 -142 104q-85 38 -177 39q-70 -2 -137 -23q-85 -29 -153 -89q-66 -61 -104 -142q-38 -85 -38 -177z
M370 203q9 -43 43 -71q36 -25 82 -24q27 -1 54 7q22 8 40 23q29 30 29 72q-1 23 -11 45q-9 19 -26 31q-39 22 -84 21h-55v80h55q39 -1 71 21q32 25 33 66q-1 38 -30 64q-33 23 -73 22q-44 1 -79 -25q-29 -27 -37 -65l-92 12q16 74 77 120q59 40 131 40q44 0 86 -12
q34 -10 61 -32q48 -46 48 -113q1 -45 -20 -82q-12 -18 -29 -31q-20 -13 -41 -22q46 -13 78 -49q31 -42 30 -95q-1 -74 -50 -126q-33 -30 -75 -43q-45 -13 -91 -12q-38 0 -74 9q-36 10 -67 32q-32 24 -51 58q-17 31 -24 65z" />
    <glyph glyph-name="uni2463" unicode="&#x2463;" 
d="M35 335q0 100 41 191q41 88 112 153q73 65 164 97q72 23 148 24q75 -1 146 -24q92 -32 164 -97q71 -65 112 -153q41 -91 42 -191q-1 -101 -42 -192q-41 -88 -112 -152q-72 -65 -164 -97q-71 -23 -146 -24q-76 1 -148 24q-91 32 -164 97q-71 64 -112 152q-41 91 -41 192z
M68 335q0 -70 22 -137q29 -85 89 -152q61 -65 142 -103q85 -38 179 -39q92 1 177 39q81 38 142 103q60 67 89 152q22 67 23 137q-2 69 -23 135q-29 85 -89 153q-61 66 -142 104q-85 38 -177 39q-70 -2 -137 -23q-85 -29 -153 -89q-66 -61 -104 -142q-38 -85 -38 -177z
M499 649h131v-392h75v-83h-75v-130h-93v130h-299v66zM537 257v295h-1l-189 -295h190z" />
    <glyph glyph-name="uni2464" unicode="&#x2464;" 
d="M35 335q0 100 41 191q41 88 112 153q72 65 164 97q71 23 147 24q75 -1 147 -24q91 -32 164 -97q71 -65 112 -153q41 -91 42 -191q-1 -101 -42 -192q-41 -88 -112 -152q-73 -65 -164 -97q-72 -23 -147 -24q-76 1 -147 24q-92 32 -164 97q-71 64 -112 152q-41 91 -41 192z
M68 335q0 -70 22 -137q29 -85 89 -153q61 -65 142 -103q85 -38 178 -39q93 1 178 39q81 38 142 103q60 68 89 153q22 67 23 137q-1 92 -39 177q-38 81 -104 142q-68 60 -153 89q-67 21 -136 23q-70 -2 -136 -23q-85 -29 -153 -89q-66 -61 -104 -142q-38 -85 -38 -177z
M374 193q11 -40 44 -65q36 -23 80 -22q29 -1 57 9q21 8 37 24q33 35 32 84q1 46 -28 82q-18 18 -42 27q-23 9 -48 9q-37 0 -70 -14q-31 -15 -51 -41l-85 14l30 330h358v-83h-282l-13 -172q27 24 62 36t73 12q76 0 134 -50q25 -26 39 -60q16 -44 16 -90q0 -37 -11 -72
t-35 -63q-31 -36 -75 -51q-46 -16 -94 -15q-36 0 -70 8q-39 10 -72 33q-59 45 -76 117z" />
    <glyph glyph-name="uni2465" unicode="&#x2465;" 
d="M35 335q0 100 41 191q41 88 112 153q73 65 164 97q72 23 148 24q75 -1 146 -24q92 -32 164 -97q71 -65 112 -153q41 -91 42 -191q-1 -101 -42 -192q-41 -88 -112 -152q-72 -65 -164 -97q-71 -23 -146 -24q-76 1 -148 24q-91 32 -164 97q-71 64 -112 152q-41 91 -41 192z
M69 335q0 -94 38 -179q38 -81 104 -142q67 -59 152 -88q67 -22 137 -23q92 1 177 39q81 38 142 103q60 68 89 153q21 67 23 137q-2 69 -23 135q-29 85 -89 153q-61 66 -142 104q-85 38 -177 39q-70 -1 -137 -23q-85 -29 -152 -89q-66 -61 -104 -142q-38 -85 -38 -177z
M376 231q1 -55 38 -95q35 -31 83 -30q45 -1 79 30q17 18 26 40q9 26 10 54q0 53 -35 94q-34 32 -80 32q-55 -1 -93 -40q-32 -37 -28 -85zM280 309q-1 74 15 147q14 60 48 111q31 44 80 66q41 15 84 16q59 1 110 -30q53 -37 77 -96l-91 -14q-29 63 -98 65q-29 -1 -53 -14
q-23 -15 -38 -36q-21 -33 -30 -70q-13 -48 -14 -97l1 -1q23 37 64 57q39 17 82 18q41 0 80 -16q40 -17 67 -50q41 -58 41 -129q-1 -37 -10 -72q-12 -41 -39 -73q-30 -30 -69 -45q-46 -15 -94 -15q-50 -1 -96 20q-41 22 -68 61q-30 45 -40 98q-10 49 -9 99z" />
    <glyph glyph-name="uni2466" unicode="&#x2466;" 
d="M35 335q0 100 41 191q41 88 112 153q73 65 164 97q72 23 148 24q75 -1 146 -24q92 -32 164 -97q71 -65 112 -153q41 -91 42 -191q-1 -101 -42 -192q-41 -88 -112 -152q-72 -65 -164 -97q-71 -23 -146 -24q-76 1 -148 24q-91 32 -164 97q-71 64 -112 152q-41 91 -41 192z
M69 335q0 -93 38 -178q38 -82 104 -142q124 -108 289 -111q92 1 177 39q81 38 142 103q60 67 89 152q22 67 23 137q-2 69 -23 135q-29 85 -89 153q-61 66 -142 104q-85 38 -177 39q-70 -1 -137 -23q-85 -29 -152 -89q-66 -61 -104 -142q-38 -85 -38 -177zM288 630h433v-64
q-100 -120 -153 -267q-45 -127 -45 -262h-91q1 128 43 249q49 142 142 261h-329v83z" />
    <glyph glyph-name="uni2467" unicode="&#x2467;" 
d="M35 335q0 100 41 191q41 88 112 153q73 65 164 97q72 23 148 24q75 -1 146 -24q92 -32 164 -97q71 -65 112 -153q41 -91 42 -191q-1 -101 -42 -192q-41 -88 -112 -152q-72 -65 -164 -97q-71 -23 -146 -24q-76 1 -148 24q-91 32 -164 97q-71 64 -112 152q-41 91 -41 192z
M68 335q0 -70 22 -137q29 -85 89 -152q61 -65 142 -103q85 -38 179 -39q92 1 177 39q81 38 142 103q60 67 89 152q22 67 23 137q-2 69 -23 135q-29 85 -89 153q-61 66 -142 104q-85 38 -177 39q-70 -2 -137 -23q-85 -29 -153 -89q-66 -61 -104 -142q-38 -85 -38 -177z
M382 210q0 -44 30 -76q38 -34 89 -33q25 -1 50 7q22 8 39 23q32 33 31 80q0 42 -30 72q-17 15 -39 23q-25 7 -51 8q-47 1 -84 -26q-36 -31 -35 -78zM400 481q0 -42 30 -70q31 -24 71 -23q38 -1 68 22q30 28 30 70q0 38 -27 65q-16 14 -35 20q-18 4 -36 5q-42 1 -74 -25
q-27 -27 -27 -64zM289 207q0 47 27 85q32 42 83 60q-41 17 -66 53q-25 37 -26 81q1 70 55 117q25 20 56 30q40 12 83 12q45 0 87 -15q33 -12 59 -34q46 -46 46 -111q-2 -45 -27 -82q-24 -35 -64 -51q52 -16 85 -60q26 -38 27 -85q-1 -34 -11 -66q-13 -37 -41 -64
q-31 -26 -70 -38q-45 -12 -91 -12q-46 -1 -89 13q-39 12 -70 39q-29 27 -43 64q-10 31 -10 64z" />
    <glyph glyph-name="uni2468" unicode="&#x2468;" 
d="M35 335q0 100 41 192q41 88 112 153q73 65 164 97q72 23 148 24q75 -1 146 -24q92 -32 164 -97q71 -65 112 -153q41 -92 42 -192q-1 -101 -42 -192q-41 -88 -112 -152q-72 -65 -164 -97q-71 -23 -146 -24q-76 1 -148 24q-91 32 -164 97q-71 64 -112 152q-41 91 -41 192z
M68 335q0 -70 22 -137q29 -85 89 -152q61 -65 142 -103q85 -38 179 -39q92 1 177 39q81 38 142 103q60 67 89 152q22 67 23 137q-1 92 -39 177q-38 82 -104 143q-68 60 -153 89q-66 22 -135 23q-70 -1 -137 -23q-85 -29 -153 -89q-66 -61 -104 -143q-38 -85 -38 -177z
M380 442q0 -53 34 -94q33 -33 81 -31q50 0 87 35q27 29 34 69q1 10 0 21q-2 49 -31 89q-17 18 -41 27q-24 8 -49 8q-47 0 -80 -30q-17 -17 -25 -39q-10 -27 -10 -55zM289 436q-1 46 15 90q16 38 46 65q34 27 75 39q36 8 73 9q49 0 95 -17q43 -19 71 -57q27 -41 37 -89
q11 -56 11 -112q0 -75 -14 -149q-12 -62 -48 -113q-28 -36 -68 -55q-46 -22 -97 -21q-61 -2 -113 29q-24 17 -42 40q-19 26 -31 55l90 14q12 -29 36 -47q28 -19 62 -17q32 0 60 14q25 13 41 36q19 31 26 67q9 50 10 102h-2q-23 -37 -61 -57q-41 -20 -86 -20q-36 -1 -69 11
q-35 13 -61 39q-29 29 -43 67q-14 37 -13 77z" />
    <glyph glyph-name="uni2469" unicode="&#x2469;" 
d="M35 335q0 100 41 192q41 88 112 153q73 65 164 97q72 23 148 24q75 -1 146 -24q92 -32 164 -97q71 -65 112 -153q41 -92 42 -192q-1 -101 -42 -192q-41 -88 -112 -152q-72 -65 -164 -97q-71 -23 -146 -24q-76 1 -148 24q-91 32 -164 97q-71 64 -112 152q-41 91 -41 192z
M69 335q0 -93 38 -178q38 -82 104 -142q124 -108 289 -111q92 1 177 39q81 38 142 103q60 67 89 152q22 67 23 137q-1 92 -39 177q-38 82 -104 143q-68 60 -153 89q-66 22 -135 23q-70 -1 -137 -23q-85 -29 -152 -89q-66 -61 -104 -143q-38 -85 -38 -177zM432 339
q-1 59 11 118t43 109q26 37 65 59q35 18 75 19q38 -1 73 -19q40 -22 66 -60q32 -50 44 -108q11 -59 12 -118q-1 -60 -11 -119q-12 -59 -43 -109q-26 -38 -66 -60q-35 -18 -75 -18t-75 18q-40 22 -65 59q-32 51 -43 110q-12 58 -11 119zM508 339q0 -41 5 -80q6 -42 24 -81
q13 -30 38 -50q23 -17 51 -17q27 0 50 16q25 21 38 50q18 39 24 81q5 40 6 81q-1 39 -6 79q-7 42 -24 81q-14 29 -39 50q-22 16 -49 18q-29 -1 -51 -18q-25 -21 -39 -51q-17 -38 -23 -80q-5 -40 -5 -79zM296 636h70v-596h-75v503l-99 -85l-28 66z" />
    <glyph glyph-name="uni2474" unicode="&#x2474;" 
d="M479 687h95v-714h-105v589l-129 -97l-35 93zM34 333q0 123 35 240q33 109 89 208h37q-55 -99 -86 -207q-35 -118 -36 -240q0 -108 27 -212q32 -122 95 -231h-36q-63 108 -95 227q-29 105 -30 215zM805 -109q61 110 93 231q27 104 28 212q-2 122 -36 240q-31 108 -85 207
h36q55 -99 88 -208q35 -117 36 -240q-2 -110 -31 -215q-32 -119 -94 -227h-35z" />
    <glyph glyph-name="uni2475" unicode="&#x2475;" 
d="M34 333q0 123 35 240q33 109 89 208h37q-55 -99 -86 -207q-35 -118 -36 -240q0 -108 27 -212q32 -122 95 -231h-36q-63 108 -95 227q-29 105 -30 215zM805 -109q61 110 93 231q27 104 28 212q-2 122 -36 240q-31 108 -85 207h36q55 -99 88 -208q35 -117 36 -240
q-2 -110 -31 -215q-32 -119 -94 -227h-35zM256 493q10 46 35 87q25 38 60 65q70 48 155 48q42 -1 84 -11q47 -11 84 -41q33 -29 51 -69q16 -43 17 -89q0 -69 -35 -128q-22 -34 -51 -63q-35 -34 -73 -64q-18 -14 -35 -26q-46 -33 -89 -71q-30 -27 -54 -59h344v-99h-497v66
q23 57 66 104q63 66 141 116q40 29 79 60q30 25 56 55q39 45 41 104q-1 50 -37 85q-20 17 -46 24q-23 6 -46 7q-52 0 -93 -33q-39 -34 -52 -84z" />
    <glyph glyph-name="uni2476" unicode="&#x2476;" 
d="M347 173q12 -51 53 -83q44 -29 98 -28q31 0 60 9q26 9 46 26q35 35 35 84q-2 49 -37 84q-21 15 -46 22q-31 9 -63 9h-64v96h64q53 -1 94 32q31 28 32 70q-2 45 -38 74q-38 27 -84 27q-51 1 -92 -30q-34 -30 -44 -75l-107 15q17 88 89 142q38 26 82 38q37 8 75 9
q50 0 98 -16q37 -12 68 -36q60 -55 61 -135q1 -53 -27 -98q-30 -43 -80 -61q54 -15 90 -58q18 -23 27 -51q8 -31 9 -63q-1 -44 -16 -85q-15 -35 -41 -62q-37 -35 -85 -51q-52 -16 -106 -16q-44 1 -86 12q-43 12 -80 37q-38 28 -63 69q-20 36 -28 77zM34 333q0 123 35 240
q33 109 89 208h37q-55 -99 -86 -207q-35 -118 -36 -240q0 -108 27 -212q32 -122 95 -231h-36q-63 108 -95 227q-29 105 -30 215zM805 -109q61 110 93 231q27 104 28 212q-2 122 -36 240q-31 108 -85 207h36q55 -99 88 -208q35 -117 36 -240q-2 -110 -31 -215
q-32 -119 -94 -227h-35z" />
    <glyph glyph-name="uni2477" unicode="&#x2477;" 
d="M507 690h153v-469h86v-95h-86v-153h-107v153h-347v75zM553 221v355h-2l-218 -355h220zM34 333q0 107 27 210q33 125 97 238h37q-55 -99 -86 -207q-35 -118 -36 -240q0 -108 27 -212q32 -122 95 -231h-36q-64 107 -96 227q-28 105 -29 215zM805 -109q61 110 93 231
q27 104 28 212q-2 122 -36 240q-31 108 -85 207h36q55 -99 88 -208q35 -117 36 -240q-2 -110 -31 -215q-32 -119 -94 -227h-35z" />
    <glyph glyph-name="uni2478" unicode="&#x2478;" 
d="M348 163q12 -47 51 -75q41 -27 92 -26q33 -1 66 10q24 9 43 28q17 17 27 41q11 28 11 59q0 30 -11 59q-9 23 -26 40q-43 38 -101 39q-42 0 -81 -17q-34 -16 -57 -47l-100 16l34 392h412v-99h-323l-15 -202q64 55 150 55q48 -1 93 -18q39 -14 69 -42q30 -30 45 -70
q18 -52 18 -106q0 -49 -15 -95q-18 -46 -53 -80q-37 -33 -84 -48q-48 -15 -97 -15q-41 1 -81 10q-45 11 -84 37q-69 53 -89 139zM34 333q0 107 27 210q33 125 97 238h37q-55 -99 -86 -207q-35 -118 -36 -240q0 -108 27 -212q32 -122 95 -231h-36q-64 107 -96 227
q-28 105 -29 215zM805 -109q61 110 93 231q27 104 28 212q-2 122 -36 240q-31 108 -85 207h36q55 -99 88 -208q35 -117 36 -240q-2 -110 -31 -215q-32 -119 -94 -227h-35z" />
    <glyph glyph-name="uni2479" unicode="&#x2479;" 
d="M34 333q0 107 27 210q33 125 97 238h37q-55 -99 -86 -207q-35 -118 -36 -240q0 -108 27 -212q32 -122 95 -231h-36q-63 108 -95 227q-29 105 -30 215zM805 -109q61 110 93 231q27 104 28 212q-2 122 -36 240q-31 108 -85 207h36q55 -99 88 -208q35 -117 36 -240
q-2 -110 -31 -215q-32 -119 -94 -227h-35zM360 215q-2 -32 15 -59q9 -27 27 -49q15 -19 36 -31q24 -13 51 -14q28 -2 54 11q45 14 68 57q22 50 10 104q-8 28 -26 52q-15 21 -37 35q-49 25 -99 6q-44 -14 -70 -50q-24 -28 -29 -62zM250 291q-2 102 22 202q16 65 56 120
q30 37 73 57q53 24 111 24q31 -1 63 -7q35 -9 66 -28q29 -20 50 -48q22 -30 38 -64l-105 -18q-14 33 -43 55q-33 22 -72 21q-68 -2 -109 -55q-25 -39 -34 -83q-12 -60 -12 -120q0 -1 2 0q26 44 73 67q45 20 95 21q44 -1 85 -15q44 -17 76 -50q28 -36 42 -80q13 -42 13 -86
q-1 -56 -18 -108q-17 -46 -52 -79q-38 -31 -86 -44q-41 -10 -84 -11q-55 0 -105 22q-42 17 -72 51q-41 48 -56 109q-18 72 -17 147z" />
    <glyph glyph-name="uni247A" unicode="&#x247a;" 
d="M253 682h492v-79q-113 -144 -172 -317q-50 -153 -51 -313h-105q1 153 49 299q54 168 160 311h-373v99zM805 -109q61 110 93 231q27 104 28 212q-2 122 -36 240q-31 108 -85 207h36q55 -99 88 -208q35 -117 36 -240q-2 -110 -30 -215q-32 -120 -95 -227h-35zM34 333
q0 123 35 240q33 109 89 208h37q-55 -99 -86 -207q-35 -118 -36 -240q0 -108 27 -212q32 -122 95 -231h-36q-63 108 -95 227q-29 105 -30 215z" />
    <glyph glyph-name="uni247B" unicode="&#x247b;" 
d="M805 -109q61 110 93 231q27 104 28 212q-2 122 -36 240q-31 108 -85 207h36q63 -113 96 -238q27 -103 28 -210q-2 -110 -31 -215q-32 -119 -94 -227h-35zM34 333q0 123 35 240q33 109 89 208h37q-55 -99 -86 -207q-35 -118 -36 -240q0 -108 27 -212q32 -122 95 -231h-36
q-63 108 -95 227q-29 105 -30 215zM363 178q0 -59 45 -97q41 -31 93 -29q55 -2 99 31q21 17 31 43q10 25 11 53q0 50 -35 86q-21 18 -46 27q-30 9 -60 10q-31 -1 -59 -10q-26 -9 -45 -27q-35 -37 -34 -87zM383 499q-1 -50 36 -83q36 -27 82 -26q45 -1 80 26q36 33 36 83
q-1 46 -34 77q-36 29 -82 29q-48 1 -85 -28q-34 -32 -33 -78zM256 174q0 57 33 104q36 50 96 70q-48 18 -77 60q-31 44 -32 97q0 86 67 142q28 22 63 33q46 14 95 14q45 0 88 -13q42 -12 75 -40q58 -56 59 -136q-1 -54 -30 -98q-29 -42 -77 -60q62 -19 101 -70
q31 -47 31 -103q0 -47 -18 -90q-21 -44 -59 -73q-33 -24 -71 -35q-49 -14 -99 -14q-49 0 -96 13q-38 11 -69 34q-41 29 -62 75q-19 43 -18 90z" />
    <glyph glyph-name="uni247C" unicode="&#x247c;" 
d="M34 334q0 122 35 240q33 109 89 208h37q-55 -99 -86 -208q-35 -118 -36 -240q0 -107 27 -211q32 -122 95 -232h-36q-63 108 -95 227q-29 106 -30 216zM805 -109q61 110 93 232q27 103 28 211q-2 122 -36 240q-32 109 -85 208h36q62 -114 96 -239q27 -103 28 -209
q-2 -110 -30 -216q-32 -119 -95 -227h-35zM364 459q0 -34 11 -65q10 -27 30 -47q38 -37 92 -36q59 -2 101 40q32 34 39 81q2 12 1 26q-1 61 -38 109q-17 18 -40 27q-31 11 -63 11q-55 0 -94 -37q-19 -21 -28 -46q-11 -31 -11 -63zM256 451q-1 55 18 108q19 45 55 78
q39 33 87 46q42 10 86 11q56 0 109 -20q50 -22 82 -67q33 -49 44 -108q13 -66 13 -133q1 -91 -16 -180q-12 -58 -42 -109q-29 -52 -79 -82q-59 -34 -127 -33q-33 1 -64 7q-36 8 -67 28q-29 19 -50 47q-22 31 -36 66l104 18q14 -34 42 -56q33 -22 74 -20q75 0 119 62
q20 32 28 69q11 54 12 109q-1 9 -2 19q-27 -45 -74 -68q-47 -22 -98 -22q-48 0 -92 18q-36 15 -63 44q-33 34 -49 79q-14 43 -14 89z" />
    <glyph glyph-name="uni247D" unicode="&#x247d;" 
d="M424 328q-1 71 11 142q7 38 18 74q11 29 26 57q25 43 66 71q35 21 76 22q40 -1 75 -22q42 -28 67 -72q33 -61 45 -130q11 -71 12 -142q-1 -72 -12 -143q-11 -70 -44 -131q-24 -45 -66 -72q-36 -21 -77 -22q-41 1 -76 22q-42 27 -66 71q-33 62 -44 131q-12 71 -11 144z
M505 328q-1 -48 5 -95q6 -49 23 -95q12 -34 37 -59q22 -19 51 -19q28 0 50 19q25 25 38 59q18 46 24 95q5 47 6 95q-1 47 -6 94q-6 49 -24 95q-13 33 -38 58q-22 19 -50 20q-29 -1 -51 -20q-25 -25 -37 -58q-17 -46 -23 -95q-6 -47 -5 -94zM279 687h72v-714h-79v589
l-111 -97l-28 93zM34 334q0 106 27 209q34 125 97 239h37q-55 -99 -86 -208q-35 -118 -36 -240q0 -107 27 -211q32 -122 95 -232h-36q-63 108 -95 227q-29 106 -30 216zM805 -109q61 110 93 232q27 103 28 211q-2 122 -36 240q-32 109 -85 208h36q55 -99 88 -208
q35 -118 36 -240q-2 -110 -31 -216q-32 -119 -94 -227h-35z" />
    <glyph glyph-name="uni247E" unicode="&#x247e;" 
d="M317 687h73v-714h-80v589l-110 -97l-28 93zM655 687h73v-714h-80v589l-110 -97l-28 93zM34 333q0 123 35 240q33 109 89 208h37q-55 -99 -86 -207q-35 -118 -36 -240q0 -108 27 -212q32 -122 95 -231h-36q-63 108 -95 227q-29 105 -30 215zM805 -109q61 110 93 231
q27 104 28 212q-2 122 -36 240q-31 108 -85 207h36q55 -99 88 -208q35 -117 36 -240q-2 -110 -31 -215q-32 -119 -94 -227h-35z" />
    <glyph glyph-name="uni247F" unicode="&#x247f;" 
d="M416 493q8 46 28 87q19 37 49 65q53 47 125 48q35 -1 69 -11q38 -13 68 -41q27 -30 41 -69q13 -44 14 -89q-1 -63 -29 -118q-38 -69 -97 -121q-23 -22 -45 -44q-35 -33 -67 -68q-26 -29 -46 -62h290v-99h-404v66q22 64 63 118q44 58 100 105q33 29 66 60q27 26 50 56
q35 45 37 102q0 48 -31 85q-33 31 -79 31q-46 -1 -79 -33q-34 -36 -43 -84zM276 685h73v-714h-80v589l-110 -97l-28 93zM34 333q0 123 35 240q33 109 89 208h37q-55 -99 -86 -207q-35 -118 -36 -240q0 -108 27 -212q32 -122 95 -231h-36q-63 108 -95 227q-29 105 -30 215z
M805 -109q61 110 93 231q27 104 28 212q-2 122 -36 240q-31 108 -85 207h36q55 -99 88 -208q35 -117 36 -240q-2 -110 -31 -215q-32 -119 -94 -227h-35z" />
    <glyph glyph-name="uni2480" unicode="&#x2480;" 
d="M489 173q5 -24 16 -45q11 -23 30 -40q37 -28 83 -26q52 -1 89 35q30 36 30 84q-1 26 -11 50q-8 20 -23 35q-39 31 -88 30h-52v96h52q46 0 78 32q27 29 28 70q-1 43 -32 74q-31 26 -71 27q-46 0 -79 -30q-30 -32 -37 -75l-82 15q6 42 25 80q18 36 47 62q55 46 127 47
q43 0 83 -17q32 -15 56 -41q22 -28 33 -62q11 -33 11 -67q0 -52 -23 -98q-23 -41 -66 -61q47 -17 75 -58q31 -53 30 -114q-1 -44 -14 -85q-11 -35 -33 -62q-28 -34 -69 -51q-41 -16 -84 -16q-77 0 -135 48q-32 30 -51 70q-16 37 -23 77zM279 685h73v-714h-80v589l-111 -97
l-28 93zM34 333q0 123 35 240q33 109 89 208h37q-55 -99 -86 -207q-35 -118 -36 -240q0 -108 27 -212q32 -122 95 -231h-36q-63 108 -95 227q-29 105 -30 215zM805 -109q61 110 93 231q27 104 28 212q-2 122 -36 240q-31 108 -85 207h36q55 -99 88 -208q35 -117 36 -240
q-2 -110 -31 -215q-32 -119 -94 -227h-35z" />
    <glyph glyph-name="uni2481" unicode="&#x2481;" 
d="M643 690h115v-469h72v-95h-72v-153h-82v153h-283v75zM274 685h73v-714h-80v589l-111 -97l-28 93zM34 333q0 123 35 240q33 109 89 208h37q-55 -99 -86 -207q-35 -118 -36 -240q0 -108 27 -212q32 -122 95 -231h-36q-63 108 -95 227q-29 105 -30 215zM805 -109
q61 110 93 231q27 104 28 212q-2 122 -36 240q-31 108 -85 207h36q55 -99 88 -208q35 -117 36 -240q-2 -110 -31 -215q-32 -119 -94 -227h-35zM676 221v353h-1l-185 -353h186z" />
    <glyph glyph-name="uni2482" unicode="&#x2482;" 
d="M504 163q9 -45 42 -75q35 -27 79 -26q28 -1 54 10q22 10 38 28q15 18 24 40q9 29 9 60q0 29 -8 57q-7 22 -21 40q-36 39 -89 41q-36 0 -67 -17t-49 -47l-77 16l27 392h334v-99h-265l-13 -201q51 52 125 54q86 -2 139 -70q21 -32 32 -68q13 -48 13 -98q0 -47 -12 -91
t-39 -79q-29 -34 -70 -52q-40 -16 -82 -16q-76 0 -133 47q-29 26 -47 61q-18 37 -26 78zM287 685h73v-714h-80v589l-110 -97l-28 93zM34 333q0 123 35 240q33 109 89 208h37q-55 -99 -86 -207q-35 -118 -36 -240q0 -108 27 -212q32 -122 95 -231h-36q-63 108 -95 227
q-29 105 -30 215zM805 -109q61 110 93 231q27 104 28 212q-2 122 -36 240q-31 108 -85 207h36q55 -99 88 -208q35 -117 36 -240q-2 -110 -31 -215q-32 -119 -94 -227h-35z" />
    <glyph glyph-name="uni2483" unicode="&#x2483;" 
d="M427 291q-1 85 12 169q11 72 44 137q22 42 61 69q44 28 97 28q58 1 105 -35q23 -21 40 -48q18 -31 30 -64l-79 -18q-12 32 -37 55q-27 21 -61 21q-33 -2 -59 -20q-25 -18 -39 -45q-18 -35 -25 -73q-9 -52 -10 -105v-13q24 40 65 64q37 21 79 22q90 -3 138 -79
q20 -34 29 -73t9 -79q0 -55 -15 -108q-13 -44 -42 -79q-29 -30 -69 -44q-34 -10 -68 -11q-93 2 -147 77q-33 49 -45 108q-14 71 -13 144zM289 685h73v-714h-80v589l-111 -97l-28 93zM510 215q-1 -12 1 -22q2 -58 37 -104q33 -38 84 -38q25 0 48 12q22 12 36 33q14 19 20 43
q8 28 8 58q-1 29 -8 57q-5 24 -18 45q-32 44 -86 46q-52 -2 -85 -42q-31 -40 -37 -88zM34 333q0 123 35 240q33 109 89 208h37q-55 -99 -86 -207q-35 -118 -36 -240q0 -108 27 -212q32 -122 95 -231h-36q-63 108 -95 227q-29 105 -30 215zM805 -109q61 110 93 231
q27 104 28 212q-2 122 -36 240q-31 108 -85 207h36q55 -99 88 -208q35 -117 36 -240q-2 -110 -31 -215q-32 -119 -94 -227h-35z" />
    <glyph glyph-name="uni2484" unicode="&#x2484;" 
d="M419 682h395v-79q-95 -148 -140 -318q-41 -155 -41 -314h-80q1 174 50 342q41 143 119 270h-303v99zM283 685h73v-714h-80v589l-111 -97l-28 93zM34 333q0 123 35 240q33 109 89 208h37q-55 -99 -86 -207q-35 -118 -36 -240q0 -108 27 -212q32 -122 95 -231h-36
q-63 108 -95 227q-29 105 -30 215zM805 -109q61 110 93 231q27 104 28 212q-2 122 -36 240q-31 108 -85 207h36q55 -99 88 -208q35 -117 36 -240q-2 -110 -31 -215q-32 -119 -94 -227h-35z" />
    <glyph glyph-name="uni2485" unicode="&#x2485;" 
d="M422 174q0 55 27 104q28 48 79 70q-41 21 -64 61q-25 44 -26 96q-1 43 15 83q12 32 37 58q26 25 61 37q33 11 69 11q35 0 68 -11q34 -12 59 -37q24 -26 36 -58q16 -41 16 -83q0 -52 -24 -97q-23 -41 -64 -61q53 -22 83 -71q27 -48 27 -102q0 -43 -13 -83q-12 -39 -39 -70
q-26 -28 -61 -42q-43 -17 -88 -17q-43 0 -83 15q-33 13 -58 38q-31 31 -44 73q-14 42 -13 86zM286 685h73v-714h-80v589l-110 -97l-28 93zM503 178q0 -27 8 -52q9 -25 28 -43q33 -33 81 -31q49 -1 86 33q17 19 25 43q7 25 8 51q1 49 -29 86q-17 18 -39 27q-25 9 -51 10
q-53 0 -89 -37q-30 -38 -28 -87zM520 499q-1 -48 31 -83q29 -27 69 -26q39 -1 68 26q15 15 23 35q7 23 8 48q0 44 -30 77q-29 29 -69 29q-42 0 -72 -28q-29 -34 -28 -78zM34 333q0 123 35 240q33 109 89 208h37q-55 -99 -86 -207q-35 -118 -36 -240q0 -108 27 -212
q32 -122 95 -231h-36q-63 108 -95 227q-29 105 -30 215zM805 -109q61 110 93 231q27 104 28 212q-2 122 -36 240q-31 108 -85 207h36q55 -99 88 -208q35 -117 36 -240q-2 -110 -31 -215q-32 -119 -94 -227h-35z" />
    <glyph glyph-name="uni2486" unicode="&#x2486;" 
d="M425 451q-1 55 15 108q13 43 44 78q29 32 70 46q33 10 69 11q46 0 87 -20q43 -24 67 -65q28 -51 38 -108q11 -67 11 -135q0 -90 -14 -178q-6 -39 -19 -78q-11 -31 -27 -60q-25 -39 -63 -62q-42 -25 -91 -26q-60 -1 -108 35q-24 20 -40 47q-18 31 -29 66l81 18
q10 -33 35 -56q27 -21 63 -20q63 2 97 57q18 33 26 71q11 55 12 112q-1 8 -2 17q-24 -41 -64 -65q-37 -22 -80 -23q-78 0 -127 61q-28 36 -40 79q-12 44 -11 90zM289 685h73v-714h-80v589l-111 -97l-28 93zM507 459q0 -33 9 -65q7 -25 24 -46q31 -38 80 -37q53 2 87 45
q15 21 25 46q7 19 9 39q1 12 -1 25q-2 56 -34 102q-14 17 -34 26q-25 11 -52 11q-49 -2 -81 -38q-33 -50 -32 -108zM34 333q0 123 35 240q33 109 89 208h37q-55 -99 -86 -207q-35 -118 -36 -240q0 -108 27 -212q32 -122 95 -231h-36q-63 108 -95 227q-29 105 -30 215z
M805 -109q61 110 93 231q27 104 28 212q-2 122 -36 240q-31 108 -85 207h36q55 -99 88 -208q35 -117 36 -240q-2 -110 -31 -215q-32 -119 -94 -227h-35z" />
    <glyph glyph-name="uni2487" unicode="&#x2487;" 
d="M805 -109q61 110 93 231q27 104 28 212q-2 122 -36 240q-31 108 -85 207h36q55 -99 88 -208q35 -117 36 -240q-2 -110 -31 -215q-32 -119 -94 -227h-35zM513 328q-1 71 9 142q10 69 39 131q21 42 58 71q29 21 66 22q36 -1 66 -22q38 -29 58 -72q30 -62 39 -130
q10 -71 11 -142q-1 -72 -10 -143q-10 -69 -38 -131q-21 -44 -58 -72q-31 -21 -68 -22q-37 1 -67 22q-37 28 -57 71q-29 63 -39 131q-10 72 -9 144zM578 328q-1 -48 5 -95q5 -49 21 -95q11 -33 35 -59q19 -18 46 -19q26 1 46 19q24 26 36 59q16 46 21 95q5 47 6 95
q-1 47 -6 94q-6 49 -22 95q-12 33 -35 58q-20 18 -46 20q-27 -2 -46 -20q-24 -26 -35 -58q-16 -47 -21 -95q-6 -47 -5 -94zM162 493q6 45 23 88q16 36 41 65q42 46 105 48q68 0 112 -52q24 -31 34 -69q11 -44 12 -89q1 -63 -22 -121q-14 -32 -34 -61q-24 -34 -52 -64
q-21 -26 -43 -50q-29 -31 -55 -65q-18 -24 -31 -50h242v-100h-335v66q16 61 51 114q36 54 83 100q37 38 72 78q16 20 29 41q29 49 29 107q1 46 -26 84q-26 31 -66 31q-40 -2 -67 -32q-30 -38 -37 -85zM34 333q0 123 35 240q33 109 89 208h37q-55 -99 -86 -207
q-35 -118 -36 -240q0 -108 27 -212q32 -122 95 -231h-36q-63 108 -95 227q-29 105 -30 215z" />
    <glyph glyph-name="uni2488" unicode="&#x2488;" 
d="M384 687h99v-714h-109v589l-133 -97l-37 93zM795 116v-143h-110v143h110z" />
    </font>
</defs>
</svg>
